<?xml version="1.0" standalone="no"?>
<!DOCTYPE svg PUBLIC "-//W3C//DTD SVG 1.1//EN" "http://www.w3.org/Graphics/SVG/1.1/DTD/svg11.dtd" >
<svg xmlns="http://www.w3.org/2000/svg">
<metadata>Generated by IcoMoon</metadata>
<defs>
<font id="Wordpress-Related" horiz-adv-x="512">
<font-face units-per-em="512" ascent="480" descent="-32" />
<missing-glyph horiz-adv-x="512" />
<glyph unicode="&#x20;" d="" horiz-adv-x="256" />
<glyph unicode="&#x2665;" d="M192 48c199.5 157 192 212.5 192 256s-36 96-96 96-96-64-96-64-36 64-96 64-96-52.5-96-96-7.5-99 192-256z" horiz-adv-x="384" />
<glyph unicode="&#x26a1;" d="M320 256h-128l96 224-288-288h128l-96-224 288 288z" horiz-adv-x="320" />
<glyph unicode="&#xe600;" d="M256-32c-141.376 0-256 114.624-256 256s114.624 256 256 256 256-114.624 256-256-114.624-256-256-256zM256 416c-106.016 0-192-85.984-192-192s85.984-192 192-192 192 85.984 192 192-85.984 192-192 192zM350.080 108.576l-5.6-3.264-16.288-9.888-9.6-7.008c-7.136-3.36-14.56-6.048-22.24-8.384v9.44l-2.72 21.76c0 0-1.344 12.512-3.392 15.808-1.984 3.296-6.752 7.872-11.488 9.888-4.736 1.984-8.128 1.984-10.848 5.248-2.72 3.328-4.704 9.248-8.128 14.496-3.392 5.28-7.456 10.56-7.456 13.184s0 29.664 0 29.664l3.392 25.024 7.456 5.28 8.768 9.888 6.080 1.984 21.056-3.936h14.944l6.048-12.512 14.24-11.2 8.8-13.856 11.488-3.936h12.864l8.8-10.56 5.44-11.2 2.016-7.936v-13.152l-1.408-7.776c-8.544-14.112-19.424-26.496-32.224-37.056zM297.728 335.936l-14.912-7.936-5.44-15.136-8.8-7.904h-29.12l-13.568-5.28-0.672-10.56-5.408-8.544-1.376-9.216 2.72-7.904 3.392-7.936c0 0 8.128-9.216 0-15.808 0 0-10.176 0-12.192 3.296s-16.96 12.512-19.648 15.168c-2.72 2.656-11.52 5.28-11.52 5.28l-10.848 3.936-10.176 0.672 0.672 13.824-0.672 11.872-4.064 8.576-11.52 8.576-0.672 9.184 1.408 5.12c27.456 26.56 65.248 42.976 107.008 42.976 23.552 0 45.6-5.664 65.472-14.976l-0.416-3.456-19.648-13.824z" />
<glyph unicode="&#xe601;" d="M256 480c-141.376 0-256-114.624-256-256s114.624-256 256-256 256 114.624 256 256-114.624 256-256 256zM256 32c-106.016 0-192 85.984-192 192s85.984 192 192 192 192-85.984 192-192-85.984-192-192-192zM384 256v-64h-160v160h64v-96z" />
<glyph unicode="&#xe602;" d="M256 480c-141.376 0-256-114.624-256-256s114.624-256 256-256 256 114.624 256 256-114.624 256-256 256zM256 32c-106.016 0-192 85.984-192 192s85.984 192 192 192 192-85.984 192-192-85.984-192-192-192zM128 192h256v64h-256v-64z" />
<glyph unicode="&#xe603;" d="M256 480c-141.376 0-256-114.624-256-256s114.624-256 256-256 256 114.624 256 256-114.624 256-256 256zM256 32c-106.016 0-192 85.984-192 192s85.984 192 192 192 192-85.984 192-192-85.984-192-192-192zM384 192h-96v-96h-64v96h-96v64h96v96h64v-96h96z" />
<glyph unicode="&#xe604;" d="M436.992 405.024c-99.936 99.968-262.048 99.968-362.016 0-100-99.968-100-262.080 0-362.016 99.968-100 262.080-100 362.016 0 100 99.936 100 262.048 0 362.016zM391.744 88.256c-74.976-75.008-196.544-75.008-271.52 0-74.976 74.976-74.976 196.544 0 271.52s196.544 74.976 271.52 0c75.008-75.008 75.008-196.544 0-271.52zM301.248 224l67.872-67.872-45.248-45.248-67.872 67.872-67.872-67.872-45.28 45.248 67.872 67.872-67.872 67.872 45.28 45.28 67.872-67.872 67.872 67.872 45.248-45.28z" />
<glyph unicode="&#xe605;" d="M288 352c0 0-0.992 0-64 0s-64-64-64-64v-32h64c0 0-0.992 32 32 32s32-32 32-32c-36.992 0-64-64-64-64h64c0 28 32 32 32 32s32 4 32 64-64 64-64 64zM256 480c-141.376 0-256-114.624-256-256s114.624-256 256-256 256 114.624 256 256-114.624 256-256 256zM256 32c-106.016 0-192 85.984-192 192s85.984 192 192 192 192-85.984 192-192-85.984-192-192-192zM224 96h64v64h-64v-64z" />
<glyph unicode="&#xe606;" d="M512 272c0 114.88-93.12 208-208 208h-96c-114.88 0-208-93.12-208-208s93.12-208 208-208h64l144-96v128h-1.504c58.496 36.8 97.504 101.792 97.504 176zM352 136.8v-56.8l-80 48h-64c-79.52 0-144 64.48-144 144s64.48 144 144 144h96c79.52 0 144-64.48 144-144 0-62.624-40.192-115.328-96-135.2z" />
<glyph unicode="&#xe607;" d="M448 480h-384c-35.328 0-64-28.672-64-64v-288c0-35.328 28.672-64 64-64h208l144-96v96h32c35.328 0 64 28.672 64 64v288c0 35.328-28.672 64-64 64zM448 160c0-17.696-14.304-32-32-32h-64v-48l-80 48h-176c-17.696 0-32 14.304-32 32v224c0 17.664 14.304 32 32 32h320c17.696 0 32-14.336 32-32v-224zM128 352h256v-64h-256zM128 256h256v-64h-256z" />
<glyph unicode="&#xe608;" d="M223.872 454.272l-96-98.688v-3.584h-64c-35.328 0-64-28.672-64-64v-128c0-35.36 28.672-64 64-64h64v-3.616l96-98.688c0 0 64-76.064 64 32.864v394.816c0 108.992-64 32.896-64 32.896zM223.872 128c0-52-32 0-32 0l-32 32h-64c-17.696 0-32 14.304-32 32v64c0 17.664 14.304 32 32 32h64l32 32c0.064 2.112 31.808 60.352 31.52 11.040-0.096-20.832 0.032-50.688 0.192-73.696 0.032-0.48 0.288-0.864 0.288-1.344v-128zM408.384 329.44l94.016 94.048c12.96 12.992 12.96 34.016 0 47.008-12.992 12.992-34.016 12.992-47.040 0l-94.016-94.048c-12.96-12.992-12.96-34.016 0-47.008 12.992-12.96 34.016-12.96 47.040 0zM408.384 118.496c-12.992 12.992-34.016 12.992-47.040 0-12.96-12.928-12.96-33.984 0-47.008l94.016-94.048c12.992-12.928 34.016-12.928 47.040 0 12.96 12.992 12.96 34.048 0 47.072l-94.016 93.984zM383.872 256c-17.696 0-32-14.336-32-32s14.304-32 32-32h96c17.696 0 32 14.304 32 32s-14.304 32-32 32h-96z" />
<glyph unicode="&#xe609;" d="M128.096 479.968c127.872 3.232 127.904-93.088 127.904-93.088v-67.328c-4.32-8-24.992 78.912-90.944 94.944-118.112 15.264-102.24-94.368-97.856-141.856-0.512-3.008 7.712-127.296 188.8-223.264v-81.408c-255.776 139.648-255.776 325.824-255.776 325.824 0 46.528 0 162.88 127.872 186.176zM384.128 479.968c127.872-23.296 127.872-139.648 127.872-186.176 0 0 0-186.208-255.744-325.824v81.408c181.088 95.968 189.312 220.288 188.8 223.264 4.352 47.52 20.224 157.152-97.888 141.856-65.952-16.032-86.624-102.944-90.944-94.944v67.328c0 0 0.032 96.32 127.904 93.088z" />
<glyph unicode="&#xe60a;" d="M256 96h128v64h-128v-64zM128 96h64v64h-64v-64zM128 192h64v64h-64v-64zM256 288h128v64h-128v-64zM448 480h-384c-35.328 0-64-28.672-64-64v-384c0-35.328 28.672-64 64-64h384c35.328 0 64 28.672 64 64v384c0 35.328-28.672 64-64 64zM448 64c0-17.696-14.304-32-32-32h-320c-17.664 0-32 14.304-32 32v320c0 17.664 14.336 32 32 32h320c17.696 0 32-14.336 32-32v-320zM256 192h128v64h-128v-64zM128 288h64v64h-64v-64z" />
<glyph unicode="&#xe60b;" d="M448-32h-384c-35.328 0-64 28.672-64 64v384c0 35.328 28.672 64 64 64h288l-64-64h-192c-17.664 0-32-14.336-32-32v-320c0-17.696 14.336-32 32-32h320c17.696 0 32 14.304 32 32v192l64 64v-288c0-35.328-28.672-64-64-64zM448 416l-32 32v32c0 0 96 0.992 96-96h-32l-32 32zM160 128v96h32l64-64v-32h-96zM448 352l-160-160-64 64 160 160 64-64z" />
<glyph unicode="&#xe60c;" d="M160 96h64v160h-64v-160zM352 384v32c0 35.328-28.672 64-64 64h-64c-35.328 0-64-28.672-64-64v-32h-160v-32c0-17.664 14.336-32 32-32v-288c0-35.328 28.672-64 64-64h320c35.328 0 64 28.672 64 64v288c17.696 0 32 14.336 32 32v32h-160zM224 416h64v-32h-64v32zM416 64c0-17.696-14.304-32-32-32h-256c-17.664 0-32 14.304-32 32v224c0 17.664 14.336 32 32 32h256c17.696 0 32-14.336 32-32v-224zM288 96h64v160h-64v-160z" />
<glyph unicode="&#xe60d;" d="M448 384h-96v32c0 35.328-28.672 64-64 64h-64c-35.328 0-64-28.672-64-64v-32h-96c-35.328 0-64-28.672-64-64v-288c0-35.328 28.672-64 64-64h384c35.328 0 64 28.672 64 64v288c0 35.328-28.672 64-64 64zM224 400c0 8.832 7.2 16 16 16h32c8.832 0 16-7.168 16-16v-16h-64v16zM448 64c0-17.696-14.304-32-32-32h-320c-17.664 0-32 14.304-32 32v96h128c0-17.696 14.336-32 32-32h64c17.696 0 32 14.304 32 32h128v-96zM448 192h-128c0 17.696-14.304 32-32 32h-64c-17.664 0-32-14.304-32-32h-128v96c0 17.664 14.336 32 32 32h320c17.696 0 32-14.336 32-32v-96z" />
<glyph unicode="&#xe60e;" d="M256 160h128v-64h-128zM448 480h-320c-35.328 0-64-28.672-64-64h-32c-17.664 0-32-14.336-32-32v-352c0-35.328 28.672-64 64-64h384c35.328 0 64 28.672 64 64v384c0 35.328-28.672 64-64 64zM128 64c0-17.696-14.336-32-32-32s-32 14.304-32 32v256c0 17.664 14.336 32 32 32s32-14.336 32-32v-256zM448 64c0-17.696-14.304-32-32-32h-192c-17.664 0-32 14.304-32 32v320c0 17.664 14.336 32 32 32h192c17.696 0 32-14.336 32-32v-320zM256 256h128v-64h-128zM256 352h128v-64h-128z" />
<glyph unicode="&#xe60f;" d="M128 192h64v64h-64v-64zM128 96h64v64h-64v-64zM160 480h-64v-64h64v64zM224 96h64v64h-64v-64zM224 192h64v64h-64v-64zM448 480v-64c0-17.664-14.304-32-32-32h-64c-17.696 0-32 14.336-32 32v64h-128v-64c0-17.664-14.304-32-32-32h-64c-17.696 0-32 14.336-32 32v64c-35.328 0-64-28.672-64-64v-384c0-35.328 28.672-64 64-64h384c35.328 0 64 28.672 64 64v384c0 35.328-28.672 64-64 64zM448 64c0-17.696-14.304-32-32-32h-320c-17.696 0-32 14.304-32 32v224c0 17.664 14.304 32 32 32h320c17.696 0 32-14.336 32-32v-224zM320 96h64v64h-64v-64zM320 192h64v64h-64v-64zM416 480h-64v-64h64v64z" />
<glyph unicode="&#xe610;" d="M128 288h256v64h-256v-64zM448 480h-384c-35.328 0-64-28.672-64-64v-384c0-35.328 28.672-64 64-64h384c35.328 0 64 28.672 64 64v384c0 35.328-28.672 64-64 64zM448 160c0-17.696-14.304-32-32-32h-32c-27.648 0-32-32-32-32v-32c0-17.696-14.304-32-32-32h-128c-17.696 0-32 14.304-32 32v32c0 0-0.192 32-32 32h-32c-17.696 0-32 14.304-32 32v224c0 17.664 14.304 32 32 32h320c17.696 0 32-14.336 32-32v-224zM128 192h256v64h-256v-64z" />
<glyph unicode="&#xe611;" d="M448 480h-384c-35.328 0-64-28.672-64-64v-384c0-35.328 28.672-64 64-64h384c35.328 0 64 28.672 64 64v384c0 35.328-28.672 64-64 64zM448 64c0-17.696-14.304-32-32-32h-320c-17.696 0-32 14.304-32 32v320c0 17.664 14.304 32 32 32h320c17.696 0 32-14.336 32-32v-320zM256 288v-32h-32v-64h32v-96h64v96h32v64h-32v32h32v64h-36.576c-30.24 0-59.424-28.704-59.424-64z" />
<glyph unicode="&#xe612;" d="M64 64c0-17.696 14.304-32 32-32h128v-64h-160c-35.328 0-64 28.672-64 64v160h64v-128zM64 384v-128h-64v160c0 35.328 28.672 64 64 64h160v-64h-128c-17.696 0-32-14.336-32-32zM288 96h-64v96h-96v64h96v96h64v-96h96v-64h-96v-96zM448 480c35.328 0 64-28.672 64-64v-160h-64v128c0 17.664-14.304 32-32 32h-128v64h160zM448 64v128h64v-160c0-35.328-28.672-64-64-64h-160v64h128c17.696 0 32 14.304 32 32z" />
<glyph unicode="&#xe613;" d="M448 480h-384c-35.328 0-64-28.672-64-64v-384c0-35.328 28.672-64 64-64h384c35.328 0 64 28.672 64 64v384c0 35.328-28.672 64-64 64zM256 288c58.944 0 64-64 64-64s1.888-64-64-64c-65.856 0-64 64-64 64s5.056 64 64 64zM448 64c0-17.696-14.304-32-32-32h-320c-17.696 0-32 14.304-32 32v160c0 17.696 14.304 32 32 32h36.544c-2.688-10.272-4.544-20.864-4.544-32 0-70.688 57.312-128 128-128s128 57.312 128 128c0 11.136-1.888 21.728-4.544 32h36.544c17.696 0 32-14.304 32-32v-160zM448 352c0-17.664-14.304-32-32-32h-32c-17.664 0-32 14.336-32 32v32c0 17.664 14.336 32 32 32h32c17.696 0 32-14.336 32-32v-32z" />
<glyph unicode="&#xe614;" d="M32 256c-17.664 0-32-14.304-32-32s14.336-32 32-32 32 14.304 32 32-14.336 32-32 32zM96 352c17.664 0 32 14.336 32 32s-14.336 32-32 32-32-14.336-32-32 14.336-32 32-32zM256 416c17.696 0 32 14.336 32 32s-14.304 32-32 32-32-14.336-32-32 14.304-32 32-32zM416 352c17.696 0 32 14.336 32 32s-14.304 32-32 32-32-14.336-32-32 14.304-32 32-32zM256 352c-70.688 0-128-57.312-128-128s57.312-128 128-128 128 57.312 128 128-57.312 128-128 128zM256 160c-35.328 0-64 28.672-64 64s28.672 64 64 64v-128zM416 96c-17.696 0-32-14.304-32-32s14.304-32 32-32 32 14.304 32 32-14.304 32-32 32zM96 96c-17.664 0-32-14.304-32-32s14.336-32 32-32 32 14.304 32 32-14.336 32-32 32zM480 256c-17.696 0-32-14.304-32-32s14.304-32 32-32 32 14.304 32 32-14.304 32-32 32zM256 32c-17.696 0-32-14.304-32-32s14.304-32 32-32 32 14.304 32 32-14.304 32-32 32z" />
<glyph unicode="&#xe615;" d="M96 96c-17.664 0-32-14.304-32-32s14.336-32 32-32 32 14.304 32 32-14.336 32-32 32zM32 256c-17.664 0-32-14.304-32-32s14.336-32 32-32 32 14.304 32 32-14.336 32-32 32zM256 416c17.696 0 32 14.336 32 32s-14.304 32-32 32-32-14.336-32-32 14.304-32 32-32zM96 352c17.664 0 32 14.336 32 32s-14.336 32-32 32-32-14.336-32-32 14.336-32 32-32zM480 256c-17.696 0-32-14.304-32-32s14.304-32 32-32 32 14.304 32 32-14.304 32-32 32zM416 96c-17.696 0-32-14.304-32-32s14.304-32 32-32 32 14.304 32 32-14.304 32-32 32zM256 32c-17.696 0-32-14.304-32-32s14.304-32 32-32 32 14.304 32 32-14.304 32-32 32zM256 352c-70.688 0-128-57.312-128-128s57.312-128 128-128 128 57.312 128 128-57.312 128-128 128zM256 160c-35.328 0-64 28.672-64 64s28.672 64 64 64 64-28.672 64-64-28.672-64-64-64zM416 352c17.696 0 32 14.336 32 32s-14.304 32-32 32-32-14.336-32-32 14.304-32 32-32z" />
<glyph unicode="&#xe616;" d="M359.328 213.056c15.36 21.088 24.672 46.848 24.672 74.944v64c0 70.688-57.312 128-128 128s-128-57.312-128-128v-64c0-28.096 9.312-53.856 24.672-74.944-89.888-19.872-152.672-64.768-152.672-117.056v-64c0-35.328 28.672-64 64-64h384c35.328 0 64 28.672 64 64v64c0 52.288-62.784 97.184-152.672 117.056zM192 352c0 35.328 28.672 64 64 64s64-28.672 64-64v-64c0-35.328-28.672-64-64-64s-64 28.672-64 64v64zM448 32h-384v64c0 35.328 85.984 64 192 64 105.984 0 192-28.672 192-64v-64z" />
<glyph unicode="&#xe617;" d="M467.808 124.576c-21.76 13.088-49.952 23.424-82.56 29.376 18.816 17.504 30.752 42.304 30.752 70.048v32c0 53.024-43.008 96-96 96-11.52 0-22.4-2.368-32.672-6.080 0.128 2.048 0.672 4 0.672 6.080v32c0 53.024-43.008 96-96 96-53.024 0-96-42.976-96-96v-32c0-27.744 11.968-52.544 30.752-70.048-32.64-5.952-60.832-16.288-82.56-29.376-25.568-8.384-44.192-32.192-44.192-60.576v-32c0-35.328 28.672-64 64-64h73.472c-5.632-9.472-9.472-20.16-9.472-32v-32c0-35.328 28.672-64 64-64h256c35.328 0 64 28.672 64 64v32c0 28.384-18.624 52.192-44.192 60.576zM288 256c0 17.664 14.304 32 32 32s32-14.336 32-32v-64c0-17.696-14.304-32-32-32s-32 14.304-32 32v64zM160 384c0 17.664 14.336 32 32 32s32-14.336 32-32v-64c0-17.664-14.336-32-32-32s-32 14.336-32 32v64zM64 160c0 0 8.992 64 128 64 11.904 0 22.4-0.768 32.192-1.952 0.512-24.032 10.144-45.472 25.216-62.048h-185.408zM192 32c0 0 8.992 64 128 64s128-64 128-64h-256z" />
<glyph unicode="&#xe618;" d="M448-32h-384c-35.328 0-64 28.672-64 64v384c0 35.328 28.672 64 64 64h384c35.328 0 64-28.672 64-64v-384c0-35.328-28.672-64-64-64zM448 384c0 17.664-14.304 32-32 32h-320c-17.664 0-32-14.336-32-32v-224c0-17.696 14.336-32 32-32h32c31.808 0 32-32 32-32v-32c0-17.696 14.336-32 32-32h128c17.696 0 32 14.304 32 32v32c0 0 4.32 32 32 32h32c17.696 0 32 14.304 32 32v224zM288 96h-64v128h-96l128 128 128-128h-96v-128z" />
<glyph unicode="&#xe619;" d="M448-32h-384c-35.328 0-64 28.672-64 64v384c0 35.328 28.672 64 64 64h384c35.328 0 64-28.672 64-64v-384c0-35.328-28.672-64-64-64zM448 384c0 17.664-14.304 32-32 32h-320c-17.696 0-32-14.336-32-32v-224c0-17.696 14.304-32 32-32h32c31.808 0 32-32 32-32v-32c0-17.696 14.304-32 32-32h128c17.696 0 32 14.304 32 32v32c0 0 4.352 32 32 32h32c17.696 0 32 14.304 32 32v224zM128 224h96v128h64v-128h96l-128-128-128 128z" />
<glyph unicode="&#xe61a;" d="M448 96c35.328 0 64 28.672 64 64v256c0 35.328-28.672 64-64 64h-384c-35.328 0-64-28.672-64-64v-256c0-35.328 28.672-64 64-64h160v-64h-192c-17.696 0-32-14.304-32-32s14.304-32 32-32h448c17.696 0 32 14.304 32 32s-14.304 32-32 32h-192v64h160zM96 160c-17.696 0-32 14.304-32 32v192c0 17.664 14.304 32 32 32h320c17.696 0 32-14.336 32-32v-192c0-17.696-14.304-32-32-32h-320z" />
<glyph unicode="&#xe61b;" d="M224 480l-224-192 224-160v352zM224 352c0 0 288 10.752 288-384 0 0-84.224 288-288 288v96z" />
<glyph unicode="&#xe61c;" d="M448 480h-192c-35.328 0-64-28.672-64-64v-192c0-35.328 28.672-64 64-64h192c35.328 0 64 28.672 64 64v192c0 35.328-28.672 64-64 64zM448 256c0-17.696-14.304-32-32-32h-128c-17.696 0-32 14.304-32 32v128c0 17.664 14.304 32 32 32h128c17.696 0 32-14.336 32-32v-128zM256 64c0-17.696-14.304-32-32-32h-128c-17.696 0-32 14.304-32 32v128c0 17.696 14.304 32 32 32h32v64h-64c-35.328 0-64-28.672-64-64v-192c0-35.328 28.672-64 64-64h192c35.328 0 64 28.672 64 64v64h-64v-32z" />
<glyph unicode="&#xe61d;" d="M160 480h-96c-35.328 0-64-28.672-64-64v-96c0-35.328 28.672-64 64-64h96c35.328 0 64 28.672 64 64v96c0 35.328-28.672 64-64 64zM160 352c0-17.664-14.304-32-32-32h-32c-17.696 0-32 14.336-32 32v32c0 17.664 14.304 32 32 32h32c17.696 0 32-14.336 32-32v-32zM160 192h-96c-35.328 0-64-28.672-64-64v-96c0-35.328 28.672-64 64-64h96c35.328 0 64 28.672 64 64v96c0 35.328-28.672 64-64 64zM160 64c0-17.696-14.304-32-32-32h-32c-17.696 0-32 14.304-32 32v32c0 17.696 14.304 32 32 32h32c17.696 0 32-14.304 32-32v-32zM448 192h-96c-35.328 0-64-28.672-64-64v-96c0-35.328 28.672-64 64-64h96c35.328 0 64 28.672 64 64v96c0 35.328-28.672 64-64 64zM448 64c0-17.696-14.304-32-32-32h-32c-17.696 0-32 14.304-32 32v32c0 17.696 14.304 32 32 32h32c17.696 0 32-14.304 32-32v-32zM448 480h-96c-35.328 0-64-28.672-64-64v-96c0-35.328 28.672-64 64-64h96c35.328 0 64 28.672 64 64v96c0 35.328-28.672 64-64 64zM448 352c0-17.664-14.304-32-32-32h-32c-17.696 0-32 14.336-32 32v32c0 17.664 14.304 32 32 32h32c17.696 0 32-14.336 32-32v-32z" />
<glyph unicode="&#xe61e;" d="M448 416h-384c-35.328 0-64-28.672-64-64v-256c0-35.328 28.672-64 64-64h384c35.328 0 64 28.672 64 64v256c0 35.328-28.672 64-64 64zM448 128c0-17.696-14.304-32-32-32h-320c-17.664 0-32 14.304-32 32v192c0 17.696 14.336 32 32 32h320c17.696 0 32-14.304 32-32v-192zM368 304l-112-112-112 112-32-32 48-48-48-48 32-32 48 48 64-48 64 48 48-48 32 32-48 48 48 48-32 32z" />
<glyph unicode="&#xe61f;" d="M128 320c0 17.673 14.327 32 32 32s32-14.327 32-32c0-17.673-14.327-32-32-32s-32 14.327-32 32zM493.632 252.928l-227.104 227.072h-266.528v-266.56l227.072-227.072c24.544-24.512 64.288-24.512 88.864 0l177.696 177.696c24.48 24.576 24.48 64.32 0 88.864zM427.008 186.304l-133.312-133.312c-12.256-12.256-32.128-12.256-44.384 0l-185.312 185.312v177.696h177.696l185.312-185.312c12.256-12.224 12.256-32.128 0-44.384z" />
<glyph unicode="&#xe620;" d="M448 480h-384c-35.328 0-64-28.672-64-64v-384c0-35.328 28.672-64 64-64h384c35.328 0 64 28.672 64 64v384c0 35.328-28.672 64-64 64zM384 416h32c17.696 0 32-14.304 32-32v-64h-64v96zM448 288v-128h-64v128h64zM192 416h128v-160h-128v160zM128 32h-32c-17.664 0-32 14.304-32 32v64h64v-96zM128 160h-64v128h64v-128zM128 320h-64v64c0 17.696 14.336 32 32 32h32v-96zM320 32h-128v160h128v-160zM416 32h-32v96h64v-64c0-17.696-14.304-32-32-32z" />
<glyph unicode="&#xe621;" d="M448 64c0-17.696-14.304-32-32-32h-320c-17.664 0-32 14.304-32 32v320c0 17.696 14.336 32 32 32h96l106.656 64h-234.656c-35.328 0-64-28.672-64-64v-384c0-35.328 28.672-64 64-64h384c35.328 0 64 28.672 64 64v264l-64-48v-184zM128.448 169.152c-0.512-5.568-0.512-8.8-0.512-8.8 0 3.104 0.416 5.728 0.512 8.8zM351.488 417.28c-0.352-3.264-0.512-2.656-0.544 0.192-15.808 0.128-214.784-15.712-223.104-260.384 2.368-12.288 42.912 161.568 224.064 197.472 0.096-2.56 0.096-66.56 0.096-66.56l160 96-160 96c0.544 0.288-1.216-50.88-1.024-62.528 1.184-0.032 1.6-0.096 0.512-0.192z" />
<glyph unicode="&#xe622;" d="M176 256c26.528 0 48 21.504 48 48s-21.472 48-48 48-48-21.504-48-48 21.472-48 48-48zM448 480h-384c-35.328 0-64-28.672-64-64v-384c0-35.328 28.672-64 64-64h384c35.328 0 64 28.672 64 64v384c0 35.328-28.672 64-64 64zM448 64c0-17.696-14.304-32-32-32h-320c-17.664 0-32 14.304-32 32v320c0 17.696 14.336 32 32 32h320c17.696 0 32-14.304 32-32v-320zM224 128l-32 64-64-96h256l-64 192-96-160z" />
<glyph unicode="&#xe623;" d="M480 61.056v325.888c18.592 6.624 32 24.192 32 45.056 0 26.496-21.504 48-48 48-20.864 0-38.432-13.408-45.056-32h-325.888c-6.624 18.592-24.192 32-45.056 32-26.496 0-48-21.504-48-48 0-20.864 13.408-38.432 32-45.056v-325.888c-18.592-6.624-32-24.192-32-45.056 0-26.496 21.504-48 48-48 20.864 0 38.432 13.408 45.056 32h325.888c6.624-18.592 24.192-32 45.056-32 26.496 0 48 21.504 48 48 0 20.864-13.408 38.432-32 45.056zM48 0c-8.832 0-16 7.168-16 16s7.168 16 16 16 16-7.168 16-16-7.168-16-16-16zM48 416c-8.832 0-16 7.168-16 16s7.168 16 16 16 16-7.168 16-16-7.168-16-16-16zM416 64h-320v320h320v-320zM464 448c8.832 0 16-7.168 16-16s-7.168-16-16-16-16 7.168-16 16 7.168 16 16 16zM464 0c-8.832 0-16 7.168-16 16s7.168 16 16 16 16-7.168 16-16-7.168-16-16-16z" />
<glyph unicode="&#xe624;" d="M502.816-22.816c-12.448-12.448-32.512-12.448-44.928 0l-224.736 224.704c-12.416 12.448-12.416 32.544 0 44.992 12.448 12.416 32.576 12.416 44.992 0l224.672-224.736c12.448-12.448 12.448-32.512 0-44.96zM155.808 324.192c11.936-11.936-11.136-100.256-11.136-100.256-24.384 24.384-55.712 77.984-55.712 77.984s-89.088-12.928-89.088 0 44.576 66.848 44.576 66.848c-22.688 52.416-22.304 89.088-22.304 89.088s36.672 0.384 89.088-22.272c0 0 53.92 44.576 66.848 44.576s0-89.088 0-89.088 53.6-31.36 77.952-55.744c0 0-88.288-23.072-100.224-11.136z" />
<glyph unicode="&#xe625;" d="M348.928 480h-217.856c-37.056 0-67.072-29.6-67.072-66.048v-379.872c0-36.512 30.016-66.080 67.072-66.080h217.888c37.024 0 67.040 29.568 67.040 66.048v379.904c0 36.448-30.016 66.048-67.072 66.048zM240 1.024c-13.888 0-25.12 11.104-25.12 24.768s11.264 24.768 25.12 24.768 25.152-11.104 25.152-24.768-11.264-24.768-25.152-24.768zM352 128c0-18.24-13.504-32-32-32h-160c-18.496 0-32 13.76-32 32v256c0 18.24 13.504 32 32 32h160c18.496 0 32-13.76 32-32v-256z" />
<glyph unicode="&#xe626;" d="M512 448v32h-32v-1.44l-94.816-94.784c-0.416 0-0.736 0.224-1.184 0.224h-224v64c0 17.696-14.304 32-32 32s-32-14.304-32-32v-64h-64c-17.696 0-32-14.304-32-32s14.304-32 32-32h64v-224c0-17.696 14.304-32 32-32h224v-64c0-17.696 14.304-32 32-32s32 14.304 32 32v64h64c17.696 0 32 14.304 32 32s-14.304 32-32 32h-64v224c0 0.416-0.224 0.768-0.256 1.216l94.816 94.784h1.44zM160 160v160h160v-1.44l-158.56-158.56h-1.44zM352 128h-160v1.44l158.56 158.56h1.44v-160z" />
<glyph unicode="&#xe627;" d="M64 320v-64h-64v64h64zM0 416c0 35.328 28.672 64 64 64h32v-64c-17.696 0-32-14.304-32-32h-64v32zM160 416v64h64v-64h-64zM64 64c0-17.696 14.304-32 32-32v-64h-32c-35.328 0-64 28.672-64 64v32h64zM64 192v-64h-64v64h64zM160-32v64h64v-64h-64zM448 256v64h64v-64h-64zM288-32v64h64v-64h-64zM448 480c35.328 0 64-28.672 64-64v-32h-64c0 17.696-14.304 32-32 32v64h32zM448 128v64h64v-64h-64zM416 32c17.696 0 32 14.304 32 32h64v-32c0-35.328-28.672-64-64-64h-32v64zM288 416v64h64v-64h-64z" />
<glyph unicode="&#xe628;" d="M272 224h-32c-26.528 0-48-21.504-48-48s21.472-48 48-48h-16v-32h64v32h-16c26.496 0 48 21.504 48 48s-21.504 48-48 48zM448 352h-35.232c-14.816 73.024-79.36 128-156.768 128s-141.952-54.976-156.768-128h-35.232c-35.328 0-64-28.672-64-64v-256c0-35.328 28.672-64 64-64h384c35.328 0 64 28.672 64 64v256c0 35.328-28.672 64-64 64zM256 416c41.728 0 76.896-26.784 90.112-64h-180.224c13.216 37.216 48.384 64 90.112 64zM448 64c0-17.696-14.304-32-32-32h-320c-17.664 0-32 14.304-32 32v192c0 17.696 14.336 32 32 32h320c17.696 0 32-14.304 32-32v-192z" />
<glyph unicode="&#xe629;" d="M254.912 480c0 0-174.912-1.984-174.912-191.008 0-96 174.912-320.992 174.912-320.992s177.088 223.008 177.088 321.984c0 188.032-177.088 190.016-177.088 190.016zM255.328 64c0 0-111.168 154.592-111.36 220.608-0.416 129.888 111.296 131.392 111.36 131.392 0.192 0 113.344-1.472 112.288-130.688-0.512-68.064-112.288-221.312-112.288-221.312zM256 352c-26.496 0-48-21.504-48-48s21.504-48 48-48 48 21.504 48 48-21.504 48-48 48z" />
<glyph unicode="&#xe62a;" d="M256.16 351.84h-64v-64h-64v-64h64v-64h64v64h64v64h-64v64zM500.32 35.424l-92.448 92.448c25.344 36.288 40.32 80.352 40.32 127.968 0 123.712-100.32 224-224 224s-224-100.288-224-224c0-123.712 100.288-224 224-224 47.616 0 91.712 14.976 128 40.32l92.448-92.448c15.36-15.36 40.32-15.36 55.68 0s15.36 40.288 0 55.712zM224.16 95.808c-88.352 0-160 71.616-160 160s71.648 160 160 160c88.384 0 160-71.616 160-160 0.032-88.384-71.584-160-160-160z" />
<glyph unicode="&#xe62b;" d="M500.32 35.424l-92.448 92.448c25.344 36.288 40.32 80.352 40.32 127.968 0 123.712-100.32 224-224 224s-224-100.288-224-224c0-123.712 100.288-224 224-224 47.616 0 91.712 14.976 128 40.32l92.448-92.448c15.36-15.36 40.32-15.36 55.68 0s15.36 40.288 0 55.712zM224.16 95.808c-88.352 0-160 71.616-160 160s71.648 160 160 160c88.384 0 160-71.616 160-160 0.032-88.384-71.584-160-160-160zM128.16 223.84h192v64h-192v-64z" />
<glyph unicode="&#xe62c;" d="M500.32 35.424l-92.448 92.448c25.344 36.288 40.32 80.352 40.32 127.968 0 123.712-100.32 224-224 224s-224-100.288-224-224c0-123.712 100.288-224 224-224 47.616 0 91.712 14.976 128 40.32l92.448-92.448c15.36-15.36 40.32-15.36 55.68 0s15.36 40.288 0 55.712zM224.16 95.808c-88.352 0-160 71.616-160 160s71.648 160 160 160c88.384 0 160-71.616 160-160 0.032-88.384-71.584-160-160-160z" />
<glyph unicode="&#xe62d;" d="M255.584 480h0.832c-0.16-0.032-0.288-0.064-0.416-0.064s-0.256 0.032-0.416 0.064zM493.568 261.312c24.672-24.672 24.672-64.736 0-89.44l-11.872-11.872h-33.696v-128c0-35.328-28.672-64-64-64h-256c-35.328 0-64 28.672-64 64v128h-33.696l-11.872 11.872c-24.672 24.704-24.672 64.768 0 89.44l201.248 201.216c10.208 10.208 23.040 15.744 36.32 17.408 13.28-1.664 26.112-7.2 36.32-17.408l201.248-201.216zM384 224h50.304c-1.344 5.44-3.584 10.688-7.808 14.976l-156.512 156.512c-4 4-8.896 6.208-13.984 7.616-5.088-1.408-9.984-3.648-13.952-7.616l-156.512-156.512c-4.256-4.288-6.496-9.536-7.84-14.976h50.304v-160c0-17.696 14.304-32 32-32h32v160h128v-160h32c17.696 0 32 14.304 32 32v160z" />
<glyph unicode="&#xe62e;" d="M159.936 16c0 26.51 21.49 48 48 48s48-21.49 48-48c0-26.51-21.49-48-48-48s-48 21.49-48 48zM415.936 192h-198.496l-7.968 32h208.128c11.136 0 20.512 6.656 25.76 16.128l2.208-0.128 66.496 188.288-0.128 19.712c0 17.696-14.304 32-32 32h-448c-17.696 0-32-14.304-32-32s14.304-32 32-32h66.528l62.528-250.72c-0.32-1.792-1.056-3.392-1.056-5.28 0-17.696 14.304-32 32-32h224c17.696 0 32 14.304 32 32s-14.304 32-32 32zM161.568 416h283.040l-45.248-128h-205.856l-31.936 128zM351.936 16c0 26.51 21.49 48 48 48s48-21.49 48-48c0-26.51-21.49-48-48-48s-48 21.49-48 48z" />
<glyph unicode="&#xe62f;" d="M256 288c-53.024 0-96-42.976-96-96s42.976-96 96-96 96 42.976 96 96-42.976 96-96 96zM256 160c-17.696 0-32 14.304-32 32s14.304 32 32 32 32-14.304 32-32-14.304-32-32-32zM448 416h-64c0 35.328-28.672 64-64 64h-128c-35.328 0-64-28.672-64-64h-64c-35.328 0-64-28.672-64-64v-320c0-35.328 28.672-64 64-64h384c35.328 0 64 28.672 64 64v320c0 35.328-28.672 64-64 64zM448 64c0-17.696-14.304-32-32-32h-320c-17.696 0-32 14.304-32 32v256c0 17.696 14.304 32 32 32h96v32c0 17.696 14.304 32 32 32h64c17.696 0 32-14.304 32-32v-32h96c17.696 0 32-14.304 32-32v-256z" />
<glyph unicode="&#xe630;" d="M256 480c-141.376 0-256-114.624-256-256s114.624-256 256-256 256 114.624 256 256-114.624 256-256 256zM256 32c-106.016 0-192 85.984-192 192s85.984 192 192 192 192-85.984 192-192-85.984-192-192-192zM192 224l-32-64h96c35.328 0 64 28.672 64 64v96l-64-32c-35.328 0-64-28.672-64-64zM288 224c0-17.696-14.304-32-32-32s-32 14.304-32 32 14.304 32 32 32 32-14.304 32-32z" />
<glyph unicode="&#xe631;" d="M379.84 318.816c-13.824 55.712-63.84 97.184-123.84 97.184-47.872 0-89.12-26.592-111.072-65.536-81.184-7.68-144.928-75.264-144.928-158.464 0-69.312 44.352-127.776 105.984-150.016l38.016-9.984h240v1.632c71.904 8.032 128 68.32 128 142.368 0 75.456-58.24 136.672-132.16 142.816zM384 97.632v-1.632h-224c-53.024 0-96 42.976-96 96s42.976 96 96 96c11.296 0 21.952-2.304 32-5.888v5.888c0 28.032 13.152 43.392 27.456 52.288-0.032 0-0.096 0.032-0.128 0.064 0.32 0.224 0.704 0.32 1.056 0.544 3.392 2.016 6.72 3.712 10.080 5.056 3.968 1.792 8.064 3.072 12.448 4 7.552 1.696 13.088 2.048 13.088 2.048 6.208 0 12.128-1.152 17.824-2.816 1.152-0.352 2.272-0.672 3.424-1.088 5.6-1.984 10.848-4.544 15.584-7.904 0.096-0.064 0.192-0.16 0.32-0.256 4.96-3.552 9.312-7.904 13.088-12.704 0.16-0.256 0.384-0.448 0.576-0.672 3.808-5.024 6.88-10.592 9.088-16.64 2.496-6.848 4.096-14.208 4.096-21.92 0-31.008 32-32 32-32l1.472-1.472c4.704 0.864 9.568 1.472 14.528 1.472 44.192 0 80-35.808 80-80 0-38.688-27.488-70.976-64-78.368z" />
<glyph unicode="&#xe632;" d="M177.615 192c7.438 36.521 39.688 64 78.396 64s70.958-27.479 78.376-64h32c-7.834 54.125-54.084 96-110.376 96-56.271 0-102.541-41.875-110.375-96h31.979zM256.011 320c8.833 0 16 7.167 16 16v32c0 8.833-7.167 16-16 16-8.832 0-16-7.167-16-16v-32c0-8.833 7.168-16 16-16zM403.073 323.083c-6.249 6.25-16.374 6.25-22.625 0l-22.625-22.625c-6.249-6.25-6.249-16.375 0-22.625 6.251-6.25 16.376-6.25 22.625 0l22.625 22.625c6.25 6.25 6.25 16.375 0 22.625zM154.177 300.458l-22.625 22.625c-6.249 6.25-16.373 6.25-22.625 0-6.249-6.25-6.249-16.375 0-22.625l22.625-22.625c6.252-6.25 16.376-6.25 22.625 0 6.252 6.25 6.252 16.375 0 22.625zM352.011 160h-192c-8.832 0-16-7.167-16-16s7.168-16 16-16h192c8.833 0 16 7.167 16 16s-7.167 16-16 16zM320.011 96h-128c-8.832 0-16-7.167-16-16s7.168-16 16-16h128c8.833 0 16 7.167 16 16s-7.167 16-16 16z" />
<glyph unicode="&#xe633;" d="M256 336c-61.75 0-112-50.25-112-112s50.25-112 112-112 112 50.25 112 112c0 61.75-50.25 112-112 112zM256 144c-44.188 0-80 35.812-80 80s35.812 80 80 80 80-35.812 80-80-35.812-80-80-80zM256 368c8.833 0 16 7.167 16 16v32c0 8.833-7.167 16-16 16s-16-7.167-16-16v-32c0-8.833 7.167-16 16-16zM256 80c-8.833 0-16-7.167-16-16v-32c0-8.833 7.167-16 16-16s16 7.167 16 16v32c0 8.833-7.167 16-16 16zM380.438 325.833l22.625 22.625c6.25 6.25 6.25 16.375 0 22.625s-16.375 6.25-22.625 0l-22.625-22.625c-6.25-6.25-6.25-16.375 0-22.625s16.375-6.25 22.625 0zM131.562 122.166l-22.625-22.625c-6.25-6.249-6.25-16.374 0-22.624s16.375-6.25 22.625 0l22.625 22.624c6.25 6.271 6.25 16.376 0 22.625-6.249 6.251-16.375 6.272-22.625 0zM112 224c0 8.833-7.167 16-16 16h-32c-8.833 0-16-7.167-16-16s7.167-16 16-16h32c8.833 0 16 7.167 16 16zM448 240h-32c-8.833 0-16-7.167-16-16s7.167-16 16-16h32c8.833 0 16 7.167 16 16s-7.167 16-16 16zM131.541 325.833c6.251-6.25 16.376-6.25 22.625 0 6.251 6.25 6.251 16.375 0 22.625l-22.625 22.625c-6.25 6.25-16.374 6.25-22.625 0-6.25-6.25-6.25-16.375 0-22.625l22.625-22.625zM380.459 122.188c-6.271 6.25-16.376 6.25-22.625 0-6.251-6.25-6.271-16.375 0-22.625l22.625-22.625c6.249-6.25 16.374-6.25 22.624 0s6.25 16.374 0 22.625l-22.624 22.625z" />
<glyph unicode="&#xe634;" d="M349.852 136.85c-49.876-49.916-131.083-49.916-181 0-49.916 49.917-49.916 131.125 0 181.021 13.209 13.187 29.312 23.25 47.832 29.812 5.834 2.042 12.293 0.562 16.625-3.792 4.376-4.375 5.855-10.833 3.793-16.625-12.542-35.375-4-73.666 22.249-99.917 26.209-26.228 64.501-34.75 99.917-22.25 5.792 2.062 12.271 0.583 16.625-3.792 4.376-4.333 5.834-10.812 3.771-16.625-6.521-18.52-16.604-34.623-29.812-47.832zM191.477 295.246c-37.438-37.438-37.438-98.354 0-135.771 40-40.021 108.125-36.417 143 8.167-35.959-2.25-71.375 10.729-97.75 37.084-26.375 26.354-39.333 61.771-37.084 97.729-2.874-2.251-5.604-4.647-8.166-7.209z" />
<glyph unicode="&#xe635;" d="M271 353c8.833 0 16 7.167 16 16v32c0 8.833-7.167 16-16 16s-16-7.167-16-16v-32c0-8.833 7.167-16 16-16zM271 65c-8.833 0-16-7.167-16-16v-32c0-8.833 7.167-16 16-16s16 7.167 16 16v32c0 8.833-7.167 16-16 16zM146.562 107.166l-22.625-22.625c-6.25-6.249-6.25-16.374 0-22.624s16.375-6.25 22.625 0l22.625 22.624c6.25 6.271 6.25 16.376 0 22.625-6.249 6.251-16.375 6.272-22.625 0zM127 209c0 8.833-7.167 16-16 16h-32c-8.833 0-16-7.167-16-16s7.167-16 16-16h32c8.833 0 16 7.167 16 16zM146.541 310.833c6.251-6.25 16.376-6.25 22.625 0 6.251 6.25 6.251 16.375 0 22.625l-22.625 22.625c-6.25 6.25-16.374 6.25-22.625 0-6.25-6.25-6.25-16.375 0-22.625l22.625-22.625zM335 321c-11.188 0-21.812-2.167-32-5.208-10.188 3.042-20.812 5.208-32 5.208-61.75 0-112-50.25-112-112s50.25-112 112-112c11.188 0 21.812 2.166 32 5.209 10.188-3.043 20.812-5.209 32-5.209 61.75 0 112 50.25 112 112s-50.25 112-112 112zM255.229 130.583c-36.646 7.333-64.229 39.626-64.229 78.417 0 38.792 27.583 71.083 64.229 78.417-19.895-20.229-32.229-47.875-32.229-78.417s12.334-58.188 32.229-78.417z" />
<glyph unicode="&#xe636;" d="M495 257h-81.625c-8.063 71.792-68.437 128-142.375 128-49.812 0-93.75-25.458-119.625-64h-104.375c-8.833 0-16-7.167-16-16s7.167-16 16-16h88.833c-3.624-10.208-5.979-20.896-7.208-32h-49.625c-8.833 0-16-7.167-16-16s7.167-16 16-16h49.625c1.229-11.084 3.584-21.812 7.208-32h-85.917c-10.457 0-18.916-7.167-18.916-16s8.459-16 18.916-16h101.459c25.875-38.562 69.812-64 119.625-64s93.75 25.438 119.624 64h37.46c10.457 0 18.916 7.167 18.916 16s-8.459 16-18.916 16h-21.917c3.624 10.188 5.958 20.916 7.208 32h81.625c8.833 0 16 7.167 16 16s-7.167 16-16 16zM170.229 289h100.771c8.833 0 16 7.167 16 16s-7.167 16-16 16h-78.146c20.209 19.729 47.729 32 78.146 32 56.291 0 102.542-41.875 110.375-96h-220.75c1.625 11.312 4.834 22.042 9.604 32zM271 129c-30.417 0-57.938 12.291-78.146 32h156.271c-20.187-19.709-47.708-32-78.125-32zM371.75 193h-201.521c-4.77 9.958-7.979 20.688-9.604 32h220.75c-1.625-11.312-4.834-22.042-9.625-32z" />
<glyph unicode="&#xe637;" d="M431 288c-26.5 0-48-21.5-48-48 0-5.646 1.167-10.958 2.938-16h-306.938c-8.833 0-16-7.167-16-16s7.167-16 16-16h352c26.5 0 48 21.5 48 48s-21.5 48-48 48zM79 256h192c26.5 0 48 21.5 48 48s-21.5 48-48 48-48-21.5-48-48c0-5.646 1.167-10.958 2.938-16h-146.938c-8.833 0-16-7.167-16-16s7.167-16 16-16zM335 160c-0.938 0-1.834-0.208-2.791-0.291-0.625 0.041-1.146 0.291-1.771 0.291h-246.854c-11.375 0-20.584-7.167-20.584-16s9.209-16 20.584-16h206.354c-1.771-5.042-2.938-10.376-2.938-16 0-26.5 21.5-48 48-48s48 21.5 48 48-21.5 48-48 48z" />
<glyph unicode="&#xe638;" d="M382.872 187.75l-32.625 18.834c1.042 5.666 1.75 11.458 1.75 17.416 0 5.979-0.708 11.792-1.792 17.458l32.625 18.854c15.333 8.875 20.542 28.438 11.729 43.688-8.854 15.312-28.375 20.562-43.688 11.75l-32.938-19.021c-8.812 7.5-18.854 13.417-29.938 17.354v37.917c0 17.667-14.312 32-32 32-17.666 0-32-14.333-32-32v-37.896c-11.083-3.938-21.125-9.855-29.937-17.354l-32.876 18.979c-15.312 8.833-34.896 3.604-43.749-11.708-8.813-15.292-3.562-34.854 11.749-43.688l32.563-18.813c-1.062-5.688-1.751-11.521-1.751-17.521 0-5.958 0.688-11.771 1.751-17.438l-32.584-18.812c-15.334-8.834-20.584-28.438-11.729-43.75 8.811-15.25 28.395-20.5 43.729-11.688l32.833 18.979c8.813-7.5 18.875-13.458 30-17.417v-37.873c0-17.688 14.334-32 32-32 17.688 0 32 14.312 32 32v37.917c11.125 3.958 21.188 9.875 29.958 17.395l32.917-18.999c15.312-8.812 34.876-3.562 43.688 11.688 8.857 15.311 3.628 34.874-11.685 43.749zM223.997 224c0 17.667 14.312 32 32 32 17.667 0 32-14.333 32-32 0-17.666-14.333-32-32-32-17.687 0-32 14.334-32 32z" />
<glyph unicode="&#xe639;" d="M208 416c8.833 0 16 7.167 16 16v32c0 8.833-7.167 16-16 16s-16-7.167-16-16v-32c0-8.833 7.167-16 16-16zM332.438 373.833l22.625 22.625c6.249 6.25 6.249 16.375 0 22.625s-16.375 6.25-22.625 0l-22.625-22.625c-6.25-6.25-6.25-16.375 0-22.625s16.375-6.25 22.625 0zM16 256h32c8.833 0 16 7.167 16 16s-7.167 16-16 16h-32c-8.833 0-16-7.167-16-16s7.167-16 16-16zM352 272c0-8.833 7.167-16 16-16h32c8.833 0 16 7.167 16 16s-7.167 16-16 16h-32c-8.833 0-16-7.167-16-16zM83.541 373.833c6.251-6.25 16.376-6.25 22.625 0 6.251 6.25 6.251 16.375 0 22.625l-22.625 22.625c-6.25 6.25-16.374 6.25-22.625 0-6.25-6.25-6.25-16.375 0-22.625l22.625-22.625zM400 224c-5.312 0-10.562-0.375-15.792-1.125-16.771 22.875-39.124 40.333-64.458 51.5-1.291 60.625-50.812 109.625-111.75 109.625-61.75 0-112-50.25-112-112 0-17.438 4.334-33.75 11.5-48.438-59.625-2.437-107.5-51.374-107.5-111.562 0-61.75 50.25-112 112-112 13.688 0 27.084 2.5 39.709 7.333 28.957-25.25 65.791-39.333 104.291-39.333 38.542 0 75.333 14.083 104.291 39.333 12.625-4.833 26.021-7.333 39.709-7.333 61.75 0 112 50.25 112 112s-50.25 112-112 112zM208 352c39.812 0 72.562-29.167 78.708-67.25-10.021 2-20.249 3.25-30.708 3.25-45.938 0-88.5-19.812-118.375-53.25-5.937 11.167-9.625 23.708-9.625 37.25 0 44.188 35.812 80 80 80zM400 32c-17.125 0-32.916 5.5-45.938 14.667-23.478-28.292-58.438-46.667-98.062-46.667s-74.584 18.375-98.062 46.667c-13-9.167-28.813-14.667-45.938-14.667-44.188 0-80 35.812-80 80s35.812 80 80 80c7.75 0 15.062-1.458 22.125-3.541 2.812-0.792 5.667-1.417 8.312-2.521 4.375 8.562 9.875 16.396 15.979 23.75 23.376 28.124 58.146 46.312 97.584 46.312 10.125 0 19.834-1.458 29.25-3.709 10.562-2.499 20.542-6.291 29.834-11.291 23.291-12.375 42.416-31.542 54.457-55.063 9.397 3.875 19.668 6.063 30.459 6.063 44.188 0 80-35.812 80-80s-35.812-80-80-80z" />
<glyph unicode="&#xe63a;" d="M435.062 217.834c4.875 3.625 9.812 7.188 14.229 11.604 13.208 13.229 23.271 29.333 29.792 47.854 2.083 5.792 0.604 12.292-3.772 16.625-4.354 4.375-10.812 5.854-16.623 3.792-35.396-12.5-73.688-4-99.896 22.25-26.25 26.251-34.792 64.521-22.25 99.896 2.042 5.813 0.583 12.271-3.792 16.646-4.333 4.333-10.812 5.834-16.625 3.791-18.542-6.582-34.625-16.623-47.834-29.832-33.541-33.5-43.979-81-32.479-123.792-43.25-5.521-82.125-28.5-108.021-63.793-5.229 0.75-10.479 1.125-15.792 1.125-61.75 0-112-50.25-112-112.001 0-61.749 50.25-111.999 112-111.999 13.688 0 27.084 2.5 39.709 7.334 28.957-25.25 65.791-39.334 104.291-39.334 38.542 0 75.333 14.084 104.291 39.334 12.625-4.834 26.021-7.334 39.709-7.334 61.75 0 112 50.25 112 111.999 0.001 49.439-32.416 91.022-76.937 105.835zM290.916 387.834c2.542 2.583 5.271 4.979 8.146 7.229-2.25-35.979 10.729-71.375 37.104-97.729 26.376-26.375 61.771-39.333 97.751-37.104-13.792-17.584-32.792-28.521-53.126-33.188-27.375 34.75-67.604 56.625-111.958 60.187-12.271 33.959-5.083 73.438 22.083 100.605zM400 32c-17.125 0-32.916 5.5-45.938 14.667-23.479-28.292-58.438-46.667-98.062-46.667s-74.584 18.375-98.062 46.667c-13-9.167-28.812-14.667-45.938-14.667-44.188 0-80 35.812-80 79.999 0 44.188 35.812 80 80 80 10.812 0 21.062-2.188 30.438-6.062 20.188 39.355 59.75 66.896 106.312 69.543 2.438 0.145 4.812 0.521 7.25 0.521 12.916 0 25.312-2.021 37-5.583 15.791-4.834 30.188-12.708 42.688-22.854 11.938-9.688 21.938-21.562 29.812-34.896 1.333-2.25 2.834-4.375 4.041-6.729 9.396 3.875 19.668 6.062 30.459 6.062 44.188 0 80-35.812 80-80s-35.812-80.001-80-80.001z" />
<glyph unicode="&#xe63b;" d="M256 385c8.833 0 16 7.167 16 16v32c0 8.833-7.167 16-16 16s-16-7.167-16-16v-32c0-8.833 7.167-16 16-16zM380.438 342.833l22.625 22.625c6.249 6.25 6.249 16.375 0 22.625s-16.375 6.25-22.625 0l-22.625-22.625c-6.25-6.25-6.25-16.375 0-22.625s16.375-6.25 22.625 0zM64 225h32c8.833 0 16 7.167 16 16s-7.167 16-16 16h-32c-8.833 0-16-7.167-16-16s7.167-16 16-16zM400 241c0-8.833 7.167-16 16-16h32c8.833 0 16 7.167 16 16s-7.167 16-16 16h-32c-8.833 0-16-7.167-16-16zM131.541 342.833c6.251-6.25 16.376-6.25 22.625 0 6.251 6.25 6.251 16.375 0 22.625l-22.625 22.625c-6.25 6.25-16.374 6.25-22.625 0-6.25-6.25-6.25-16.375 0-22.625l22.625-22.625zM145.625 225h32c-1.062 5.167-1.625 10.521-1.625 16 0 44.188 35.812 80 80 80s80-35.812 80-80c0-5.479-0.562-10.833-1.625-16h32c0.792 5.271 1.625 10.521 1.625 16 0 61.75-50.25 112-112 112s-112-50.25-112-112c0-5.479 0.875-10.729 1.625-16zM448 193h-384c-8.833 0-16-7.167-16-16s7.167-16 16-16h384c8.833 0 16 7.167 16 16s-7.167 16-16 16zM448 129h-384c-8.833 0-16-7.167-16-16s7.167-16 16-16h384c8.833 0 16 7.167 16 16s-7.167 16-16 16zM448 65h-384c-8.833 0-16-7.167-16-16s7.167-16 16-16h384c8.833 0 16 7.167 16 16s-7.167 16-16 16z" />
<glyph unicode="&#xe63c;" d="M64 160.999h384c8.833 0 16 7.167 16 16s-7.167 16-16 16h-384c-8.833 0-16-7.167-16-16s7.167-16 16-16zM448 128.999h-384c-8.833 0-16-7.167-16-16s7.167-16 16-16h384c8.833 0 16 7.167 16 16s-7.167 16-16 16zM448 64.999h-384c-8.833 0-16-7.167-16-16s7.167-16 16-16h384c8.833 0 16 7.167 16 16s-7.167 16-16 16zM205.042 225c-0.333 0.333-0.751 0.542-1.083 0.875-37.438 37.438-37.438 98.334 0 135.792 2.562 2.542 5.27 4.958 8.146 7.208-2.251-35.958 10.729-71.375 37.104-97.729 26.374-26.396 61.79-39.333 97.749-37.083-2.667-3.396-5.874-6.125-8.896-9.062h41.521c5.042 8.042 9.25 16.75 12.583 26.063 2.021 5.854 0.542 12.333-3.833 16.667-4.291 4.354-10.792 5.854-16.624 3.791-35.376-12.499-73.646-3.979-99.875 22.25-26.251 26.25-34.792 64.521-22.251 99.896 2.083 5.812 0.583 12.271-3.791 16.646-4.334 4.354-10.813 5.833-16.625 3.771-18.521-6.542-34.625-16.604-47.833-29.792-43.209-43.21-48.855-109.772-17.272-159.293h40.98z" />
<glyph unicode="&#xe63d;" d="M33.604 224c-1.042 5.167-1.604 10.521-1.604 16 0 44.188 35.812 80 80 80 10.812 0 21.062-2.208 30.438-6.083 21.229 41.416 63.853 70.083 113.562 70.083s92.334-28.667 113.541-70.083c9.397 3.875 19.668 6.083 30.459 6.083 44.188 0 80-35.812 80-80 0-5.479-0.562-10.833-1.625-16h32c0.792 5.271 1.625 10.521 1.625 16 0 61.75-50.25 112-112 112-5.312 0-10.562-0.375-15.792-1.125-29.874 40.708-77.020 65.125-128.208 65.125s-98.312-24.417-128.208-65.125c-5.23 0.75-10.48 1.125-15.792 1.125-61.75 0-112-50.25-112-112 0-5.479 0.854-10.729 1.625-16h31.979zM496 192h-480c-8.833 0-16-7.167-16-16s7.167-16 16-16h480c8.833 0 16 7.167 16 16s-7.167 16-16 16zM496 128h-480c-8.833 0-16-7.167-16-16s7.167-16 16-16h480c8.833 0 16 7.167 16 16s-7.167 16-16 16zM496 64h-480c-8.833 0-16-7.167-16-16s7.167-16 16-16h480c8.833 0 16 7.167 16 16s-7.167 16-16 16z" />
<glyph unicode="&#xe63e;" d="M112 320h288c8.833 0 16 7.167 16 16s-7.167 16-16 16h-288c-8.833 0-16-7.167-16-16s7.167-16 16-16zM400 288h-288c-8.833 0-16-7.167-16-16s7.167-16 16-16h288c8.833 0 16 7.167 16 16s-7.167 16-16 16zM400 224h-288c-8.833 0-16-7.167-16-16s7.167-16 16-16h288c8.833 0 16 7.167 16 16s-7.167 16-16 16zM400 160h-288c-8.833 0-16-7.167-16-16s7.167-16 16-16h288c8.833 0 16 7.167 16 16s-7.167 16-16 16z" />
<glyph unicode="&#xe63f;" d="M400 320c-5.312 0-10.562-0.375-15.792-1.125-29.874 40.708-77.020 65.125-128.208 65.125s-98.312-24.417-128.208-65.125c-5.23 0.75-10.48 1.125-15.792 1.125-61.75 0-112-50.25-112-112s50.25-112 112-112c13.688 0 27.084 2.5 39.709 7.333 28.957-25.25 65.791-39.333 104.291-39.333 38.542 0 75.333 14.083 104.291 39.333 12.625-4.833 26.021-7.333 39.709-7.333 61.75 0 112 50.25 112 112s-50.25 112-112 112zM400 128c-17.125 0-32.916 5.5-45.938 14.667-23.478-28.291-58.438-46.667-98.062-46.667s-74.584 18.376-98.062 46.667c-13-9.167-28.813-14.667-45.938-14.667-44.188 0-80 35.812-80 80s35.812 80 80 80c10.812 0 21.062-2.208 30.438-6.083 21.229 41.416 63.853 70.083 113.562 70.083s92.334-28.667 113.541-70.083c9.397 3.875 19.668 6.083 30.459 6.083 44.188 0 80-35.812 80-80s-35.812-80-80-80z" />
<glyph unicode="&#xe640;" d="M400 416c-5.312 0-10.562-0.375-15.792-1.125-29.874 40.708-77.020 65.125-128.208 65.125s-98.312-24.417-128.208-65.125c-5.23 0.75-10.48 1.125-15.792 1.125-61.75 0-112-50.25-112-112s50.25-112 112-112c13.688 0 27.084 2.5 39.709 7.333 21.541-18.771 47.416-31.291 75.104-36.521l-34.813-34.812 32-32-32-96 96 96-32 32 11 32.999c34.458 2.438 67.125 15.543 93.291 38.334 12.625-4.833 26.021-7.333 39.709-7.333 61.75 0 112 50.25 112 112s-50.25 112-112 112zM400 224c-17.125 0-32.916 5.5-45.938 14.667-18.938-22.833-45.562-38.625-75.875-44.104l-22.187-2.563c-39.625 0-74.584 18.375-98.062 46.667-13-9.167-28.813-14.667-45.938-14.667-44.188 0-80 35.812-80 80s35.812 80 80 80c10.812 0 21.062-2.208 30.438-6.083 21.229 41.416 63.853 70.083 113.562 70.083s92.334-28.667 113.541-70.083c9.397 3.875 19.668 6.083 30.459 6.083 44.188 0 80-35.812 80-80s-35.812-80-80-80z" />
<glyph unicode="&#xe641;" d="M400 416c-5.312 0-10.562-0.375-15.792-1.125-29.874 40.708-77.020 65.125-128.208 65.125s-98.312-24.417-128.208-65.125c-5.23 0.75-10.48 1.125-15.792 1.125-61.75 0-112-50.25-112-112s50.25-112 112-112c13.688 0 27.084 2.5 39.709 7.333 12.291-10.708 26.25-18.958 40.916-25.416l24.916 24.874c-23.458 7.626-44.166 21.271-59.604 39.876-12.999-9.167-28.812-14.667-45.937-14.667-44.188 0-80 35.812-80 80s35.812 80 80 80c10.812 0 21.062-2.208 30.438-6.083 21.229 41.416 63.853 70.083 113.562 70.083s92.334-28.667 113.541-70.083c9.397 3.875 19.668 6.083 30.459 6.083 44.188 0 80-35.812 80-80s-35.812-80-80-80c-17.125 0-32.916 5.5-45.938 14.667-10.375-12.521-23.312-22.667-37.625-30.584l-13.437-40.333c20.875 6.562 40.5 16.938 57.291 31.583 12.625-4.833 26.021-7.333 39.709-7.333 61.75 0 112 50.25 112 112s-50.25 112-112 112zM192 128l32-32-32-96 96 96-32 32 32 96-96-96z" />
<glyph unicode="&#xe642;" d="M400 384c-5.312 0-10.562-0.375-15.792-1.125-29.874 40.708-77.020 65.125-128.208 65.125s-98.312-24.417-128.208-65.125c-5.23 0.75-10.48 1.125-15.792 1.125-61.75 0-112-50.25-112-112s50.25-112 112-112c13.688 0 27.084 2.5 39.709 7.333 28.957-25.25 65.791-39.333 104.291-39.333 38.542 0 75.333 14.083 104.291 39.333 12.625-4.833 26.021-7.333 39.709-7.333 61.75 0 112 50.25 112 112s-50.25 112-112 112zM400 192c-17.125 0-32.916 5.5-45.938 14.667-23.478-28.292-58.438-46.667-98.062-46.667s-74.584 18.375-98.062 46.667c-13-9.167-28.813-14.667-45.938-14.667-44.188 0-80 35.812-80 80s35.812 80 80 80c10.812 0 21.062-2.208 30.438-6.083 21.229 41.416 63.853 70.083 113.562 70.083s92.334-28.667 113.541-70.083c9.397 3.875 19.668 6.083 30.459 6.083 44.188 0 80-35.812 80-80s-35.812-80-80-80zM224 32c0-17.688 14.312-32 32-32s32 14.312 32 32-32 64-32 64-32-46.312-32-64z" />
<glyph unicode="&#xe643;" d="M400 416c-5.312 0-10.562-0.375-15.792-1.125-29.874 40.708-77.020 65.125-128.208 65.125s-98.312-24.417-128.208-65.125c-5.23 0.75-10.48 1.125-15.792 1.125-61.75 0-112-50.25-112-112s50.25-112 112-112c13.688 0 27.084 2.5 39.709 7.333 28.957-25.25 65.791-39.333 104.291-39.333 38.542 0 75.333 14.083 104.291 39.333 12.625-4.833 26.021-7.333 39.709-7.333 61.75 0 112 50.25 112 112s-50.25 112-112 112zM400 224c-17.125 0-32.916 5.5-45.938 14.667-23.478-28.292-58.438-46.667-98.062-46.667s-74.584 18.375-98.062 46.667c-13-9.167-28.813-14.667-45.938-14.667-44.188 0-80 35.812-80 80s35.812 80 80 80c10.812 0 21.062-2.208 30.438-6.083 21.229 41.416 63.853 70.083 113.562 70.083s92.334-28.667 113.541-70.083c9.397 3.875 19.668 6.083 30.459 6.083 44.188 0 80-35.812 80-80s-35.812-80-80-80zM225 0c0-17.688 14.312-32 32-32s32 14.312 32 32-32 64-32 64-32-46.312-32-64zM352 32c0-17.688 14.312-32 32-32s32 14.312 32 32-32 64-32 64-32-46.312-32-64zM96 96c0-17.688 14.312-32 32-32s32 14.312 32 32-32 64-32 64-32-46.312-32-64z" />
<glyph unicode="&#xe644;" d="M417.042 313.917c-23.979 24.542-57.125 38.771-91.73 38.771-34.562 0-67.688-14.229-91.665-38.771-52.813-2.459-95.021-46.188-95.021-99.584 0-54.958 44.709-99.666 99.688-99.666 5.834 0 11.604 0.5 17.271 1.499 20.729-13.541 44.917-20.854 69.729-20.854 24.854 0 49.063 7.313 69.772 20.854 5.707-0.999 11.458-1.499 17.291-1.499 54.937 0 99.625 44.708 99.625 99.666-0.002 53.396-42.19 97.125-94.96 99.584zM412.375 146.667c-8.312 0-16.375 1.499-24 4.417-17.5-15.25-39.75-23.772-63.063-23.772-23.249 0-45.499 8.522-62.999 23.772-7.625-2.918-15.75-4.417-24-4.417-37.312 0-67.688 30.375-67.688 67.666 0 37.313 30.375 67.688 67.688 67.688 3.188 0 6.375-0.229 9.521-0.688 18.104 24.583 46.541 39.354 77.478 39.354s59.438-14.771 77.501-39.354c3.125 0.458 6.312 0.688 9.562 0.688 37.312 0 67.625-30.375 67.625-67.688 0-37.291-30.312-67.666-67.625-67.666zM144 128h-128c-8.833 0-16-7.167-16-16s7.167-16 16-16h128c8.833 0 16 7.167 16 16s-7.167 16-16 16zM16 160h64c8.833 0 16 7.167 16 16s-7.167 16-16 16h-64c-8.833 0-16-7.167-16-16s7.167-16 16-16zM48 224h64c8.833 0 16 7.167 16 16s-7.167 16-16 16h-64c-8.833 0-16-7.167-16-16s7.167-16 16-16z" />
<glyph unicode="&#xe645;" d="M417.042 409.208c-23.98 24.563-57.125 38.792-91.73 38.792-34.562 0-67.688-14.229-91.665-38.792-52.813-2.438-95.021-46.167-95.021-99.542 0-54.978 44.709-99.708 99.688-99.708 5.834 0 11.604 0.501 17.271 1.5 20.729-13.521 44.917-20.833 69.729-20.833 24.854 0 49.063 7.312 69.772 20.833 5.707-0.999 11.458-1.5 17.291-1.5 54.938 0 99.625 44.73 99.625 99.708-0.002 53.376-42.19 97.126-94.96 99.542zM412.375 241.958c-8.312 0-16.375 1.5-24 4.458-17.5-15.25-39.75-23.792-63.063-23.792-23.249 0-45.499 8.542-62.999 23.792-7.625-2.959-15.75-4.458-24-4.458-37.312 0-67.688 30.375-67.688 67.708 0 37.292 30.375 67.667 67.688 67.667 3.188 0 6.375-0.25 9.521-0.688 18.104 24.584 46.541 39.355 77.478 39.355s59.438-14.771 77.501-39.354c3.125 0.438 6.312 0.688 9.562 0.688 37.312 0 67.625-30.375 67.625-67.667 0-37.334-30.312-67.709-67.625-67.709zM144 223.312h-128c-8.833 0-16-7.146-16-16s7.167-16 16-16h128c8.833 0 16 7.147 16 16s-7.167 16-16 16zM16 255.312h64c8.833 0 16 7.146 16 16s-7.167 16-16 16h-64c-8.833 0-16-7.146-16-16s7.167-16 16-16zM48 319.312h64c8.833 0 16 7.146 16 16s-7.167 16-16 16h-64c-8.833 0-16-7.146-16-16s7.167-16 16-16zM224 96c0-17.688 14.312-32 32-32s32 14.312 32 32-32 64-32 64-32-46.312-32-64zM352 32c0-17.688 14.312-32 32-32s32 14.312 32 32-32 64-32 64-32-46.312-32-64z" />
<glyph unicode="&#xe646;" d="M326.042 36.312l-18 10.376c0.542 3.124 0.958 6.311 0.958 9.624 0 3.312-0.416 6.5-1 9.625l18.042 10.396c8.417 4.917 11.291 15.729 6.458 24.104-4.876 8.479-15.667 11.375-24.125 6.5l-18.188-10.5c-4.876 4.146-10.375 7.396-16.5 9.604v20.896c0 9.771-7.938 17.688-17.688 17.688s-17.666-7.917-17.666-17.688v-20.875c-6.126-2.188-11.646-5.479-16.521-9.625l-18.146 10.5c-8.479 4.875-19.292 2-24.167-6.479-4.875-8.417-1.938-19.25 6.5-24.126l17.959-10.375c-0.584-3.146-0.959-6.334-0.959-9.646s0.375-6.5 0.959-9.624l-17.958-10.375c-8.459-4.875-11.375-15.75-6.5-24.188s15.688-11.312 24.125-6.438l18.167 10.438c4.874-4.125 10.396-7.375 16.542-9.562v-20.938c0-9.749 7.916-17.624 17.666-17.624s17.688 7.875 17.688 17.624v20.938c6.125 2.188 11.688 5.438 16.521 9.625l18.167-10.5c8.458-4.875 19.249-2 24.125 6.438 4.874 8.437 1.999 19.25-6.459 24.187zM256 38.625c-9.75 0-17.688 7.938-17.688 17.688s7.938 17.646 17.688 17.646 17.667-7.896 17.667-17.646-7.917-17.688-17.667-17.688zM400 416c-5.312 0-10.562-0.375-15.792-1.125-29.874 40.708-77.020 65.125-128.208 65.125s-98.312-24.417-128.208-65.125c-5.23 0.75-10.48 1.125-15.792 1.125-61.75 0-112-50.25-112-112s50.25-112 112-112c13.688 0 27.084 2.5 39.709 7.333 28.957-25.25 65.791-39.333 104.291-39.333 38.542 0 75.333 14.083 104.291 39.333 12.625-4.833 26.021-7.333 39.709-7.333 61.75 0 112 50.25 112 112s-50.25 112-112 112zM400 224c-17.125 0-32.916 5.5-45.938 14.667-23.478-28.292-58.438-46.667-98.062-46.667s-74.584 18.375-98.062 46.667c-13-9.167-28.813-14.667-45.938-14.667-44.188 0-80 35.812-80 80s35.812 80 80 80c10.812 0 21.062-2.208 30.438-6.083 21.229 41.416 63.853 70.083 113.562 70.083s92.334-28.667 113.541-70.083c9.397 3.875 19.668 6.083 30.459 6.083 44.188 0 80-35.812 80-80s-35.812-80-80-80z" />
<glyph unicode="&#xe647;" d="M326.042 132.312l-18 10.375c0.542 3.125 0.958 6.312 0.958 9.625s-0.416 6.5-1 9.625l18.042 10.396c8.417 4.917 11.291 15.729 6.458 24.104-4.876 8.479-15.667 11.375-24.125 6.5l-18.188-10.5c-4.877 4.146-10.375 7.396-16.5 9.604v20.896c0 9.771-7.938 17.688-17.688 17.688s-17.666-7.917-17.666-17.688v-20.875c-6.126-2.188-11.646-5.479-16.521-9.625l-18.146 10.5c-8.479 4.875-19.292 2-24.167-6.479-4.875-8.417-1.938-19.25 6.5-24.126l17.959-10.375c-0.584-3.146-0.959-6.334-0.959-9.646s0.375-6.5 0.959-9.623l-17.958-10.376c-8.459-4.875-11.375-15.75-6.5-24.188s15.688-11.312 24.125-6.438l18.167 10.438c4.874-4.125 10.396-7.375 16.542-9.562v-20.938c0-9.749 7.916-17.624 17.666-17.624s17.688 7.875 17.688 17.624v20.938c6.125 2.188 11.688 5.438 16.521 9.625l18.167-10.5c8.458-4.875 19.249-2 24.125 6.438 4.874 8.437 1.999 19.25-6.459 24.187zM256 134.625c-9.75 0-17.688 7.938-17.688 17.688s7.938 17.646 17.688 17.646 17.667-7.896 17.667-17.646-7.917-17.688-17.667-17.688zM400 416c-5.312 0-10.562-0.375-15.792-1.125-29.874 40.708-77.020 65.125-128.208 65.125s-98.312-24.417-128.208-65.125c-5.23 0.75-10.48 1.125-15.792 1.125-61.75 0-112-50.25-112-112s50.25-112 112-112c11.812 0 23.334 2.208 34.438 5.834 1.062 5.082 2.729 10.041 5.375 14.645 3.938 6.854 9.562 12.312 16 16.502-3.312 3.229-6.938 6.104-9.875 9.688-13-9.169-28.813-14.669-45.938-14.669-44.188 0-80 35.812-80 80s35.812 80 80 80c10.812 0 21.062-2.208 30.438-6.083 21.229 41.416 63.853 70.083 113.562 70.083s92.334-28.667 113.541-70.083c9.397 3.875 19.668 6.083 30.459 6.083 44.188 0 80-35.812 80-80s-35.812-80-80-80c-17.125 0-32.916 5.5-45.938 14.667-2.938-3.583-6.604-6.459-9.896-9.688 6.459-4.207 12.125-9.688 16.042-16.562 2.708-4.646 4.354-9.584 5.416-14.583 11.064-3.626 22.564-5.834 34.376-5.834 61.75 0 112 50.25 112 112s-50.25 112-112 112z" />
<glyph unicode="&#xe648;" d="M326.042 36.312l-18 10.376c0.542 3.124 0.958 6.311 0.958 9.624 0 3.312-0.416 6.5-1 9.625l18.042 10.396c8.417 4.917 11.291 15.729 6.458 24.104-4.876 8.479-15.667 11.375-24.125 6.5l-18.188-10.5c-4.876 4.146-10.375 7.396-16.5 9.604v20.896c0 9.771-7.938 17.688-17.688 17.688s-17.666-7.917-17.666-17.688v-20.875c-6.126-2.188-11.646-5.479-16.521-9.625l-18.146 10.5c-8.479 4.875-19.292 2-24.167-6.479-4.875-8.417-1.938-19.25 6.5-24.126l17.959-10.375c-0.584-3.146-0.959-6.334-0.959-9.646s0.375-6.5 0.959-9.624l-17.958-10.375c-8.459-4.875-11.375-15.75-6.5-24.188s15.688-11.312 24.125-6.438l18.167 10.438c4.874-4.125 10.396-7.375 16.542-9.562v-20.938c0-9.749 7.916-17.624 17.666-17.624s17.688 7.875 17.688 17.624v20.938c6.125 2.188 11.688 5.438 16.521 9.625l18.167-10.5c8.458-4.875 19.249-2 24.125 6.438 4.874 8.437 1.999 19.25-6.459 24.187zM256 38.625c-9.75 0-17.688 7.938-17.688 17.688s7.938 17.646 17.688 17.646 17.667-7.896 17.667-17.646-7.917-17.688-17.667-17.688zM474.166 83.75l-12.083 3.208c-0.291 3.833-1.208 7.479-2.896 10.979l8.771 8.771c4.125 4.125 4.104 10.792 0 14.854-4.083 4.104-10.708 4.125-14.833 0l-8.791-8.75c-3.459 1.625-7.146 2.562-10.959 2.875l-3.209 12.062c-1.499 5.583-7.25 8.938-12.874 7.438-5.604-1.521-8.875-7.271-7.417-12.875l3.209-11.896c-1.584-1.084-3.084-2.292-4.5-3.667-1.375-1.417-2.542-2.916-3.626-4.459l-11.896 3.209c-5.604 1.499-11.396-1.876-12.896-7.438-1.499-5.625 1.876-11.354 7.417-12.875l12-3.229c0.334-3.771 1.292-7.458 2.979-10.959l-8.812-8.812c-4.083-4.104-4.062-10.729 0.042-14.812 4.083-4.083 10.708-4.125 14.792-0.042l8.832 8.833c3.459-1.707 7.168-2.666 11.001-2.957l3.166-12.021c1.542-5.604 7.25-8.938 12.876-7.438 5.583 1.5 8.957 7.249 7.458 12.917l-3.209 11.896c1.5 1.062 3.042 2.25 4.459 3.625 1.375 1.396 2.542 2.938 3.624 4.479l11.917-3.209c5.604-1.5 11.375 1.854 12.854 7.417 1.5 5.585-1.812 11.334-7.396 12.876zM438.312 77.062c-4.125-4.125-10.771-4.104-14.875 0-4.062 4.062-4.104 10.729 0 14.854 4.104 4.083 10.771 4.083 14.875 0 4.063-4.104 4.063-10.791 0-14.854zM118.938 137.5l-11.875-3.188c-1.104 1.5-2.25 3.021-3.646 4.438-1.416 1.375-2.916 2.562-4.479 3.625l3.188 11.938c1.5 5.604-1.834 11.375-7.375 12.854-5.625 1.5-11.375-1.834-12.875-7.417l-3.25-12.062c-3.812-0.312-7.458-1.25-10.938-2.896l-8.812 8.771c-4.125 4.125-10.75 4.104-14.834 0-4.104-4.104-4.104-10.75 0-14.854l8.771-8.771c-1.646-3.5-2.604-7.188-2.896-10.979l-12.042-3.208c-5.625-1.542-8.959-7.25-7.458-12.875 1.521-5.583 7.271-8.875 12.896-7.417l11.875 3.23c1.062-1.604 2.25-3.105 3.688-4.501 1.375-1.375 2.875-2.604 4.438-3.625l-3.188-11.896c-1.5-5.625 1.834-11.417 7.416-12.917 5.626-1.5 11.334 1.833 12.834 7.438l3.25 12c3.812 0.312 7.5 1.271 11 2.938l8.791-8.792c4.084-4.124 10.709-4.041 14.834 0.042 4.062 4.062 4.125 10.708 0 14.812l-8.812 8.812c1.688 3.46 2.688 7.188 2.938 11.001l12.062 3.188c5.562 1.521 8.896 7.25 7.396 12.875-1.501 5.56-7.251 8.894-12.897 7.436zM88.562 109.042c-4.104-4.104-10.75-4.104-14.875 0-4.062 4.083-4.062 10.771 0 14.833 4.125 4.083 10.771 4.083 14.875 0s4.063-10.75 0-14.833zM512 304c0 61.75-50.25 112-112 112-5.312 0-10.562-0.375-15.792-1.125-29.874 40.708-77.020 65.125-128.208 65.125s-98.312-24.417-128.208-65.125c-5.23 0.75-10.48 1.125-15.792 1.125-61.75 0-112-50.25-112-112s50.25-112 112-112c13.688 0 27.084 2.5 39.709 7.333 28.957-25.25 65.791-39.333 104.291-39.333 38.542 0 75.333 14.083 104.291 39.333 12.625-4.833 26.021-7.333 39.709-7.333 61.75 0 112 50.25 112 112zM354.062 238.667c-23.478-28.292-58.438-46.667-98.062-46.667s-74.584 18.375-98.062 46.667c-13-9.167-28.813-14.667-45.938-14.667-44.188 0-80 35.812-80 80s35.812 80 80 80c10.812 0 21.062-2.208 30.438-6.083 21.229 41.416 63.853 70.083 113.562 70.083s92.334-28.667 113.541-70.083c9.397 3.875 19.668 6.083 30.459 6.083 44.188 0 80-35.812 80-80s-35.812-80-80-80c-17.125 0-32.916 5.5-45.938 14.667z" />
<glyph unicode="&#xe649;" d="M400 416c-5.312 0-10.562-0.375-15.792-1.125-29.874 40.708-77.020 65.125-128.208 65.125s-98.312-24.417-128.208-65.125c-5.23 0.75-10.48 1.125-15.792 1.125-61.75 0-112-50.25-112-112s50.25-112 112-112c13.688 0 27.084 2.5 39.709 7.333 28.957-25.25 65.791-39.333 104.291-39.333 38.542 0 75.333 14.083 104.291 39.333 12.625-4.833 26.021-7.333 39.709-7.333 61.75 0 112 50.25 112 112s-50.25 112-112 112zM400 224c-9.709 0-19.209 1.75-28.25 5.208l-18 6.917-14.5-12.667c-23.25-20.291-52.812-31.458-83.25-31.458s-60 11.167-83.25 31.458l-14.5 12.667-18-6.917c-9-3.458-18.541-5.208-28.25-5.208-44.125 0-80 35.896-80 80s35.875 80 80 80c3.792 0 7.5-0.271 11.25-0.792l18.958-2.75 11.354 15.458c24.313 33.105 61.647 52.084 102.438 52.084 40.812 0 78.125-18.958 102.417-52.063l11.375-15.479 18.999 2.75c3.709 0.521 7.417 0.792 11.209 0.792 44.125 0 80-35.896 80-80s-35.875-80-80-80zM96 160c-17.688 0-32-14.312-32-32s14.312-32 32-32 32 14.312 32 32-14.312 32-32 32zM256 128c-17.688 0-32-14.312-32-32s14.312-32 32-32 32 14.312 32 32-14.312 32-32 32zM416 160c-17.688 0-32-14.312-32-32s14.312-32 32-32 32 14.312 32 32-14.312 32-32 32zM352 32c-17.688 0-32-14.312-32-32s14.312-32 32-32 32 14.312 32 32-14.312 32-32 32zM160 32c-17.688 0-32-14.312-32-32s14.312-32 32-32 32 14.312 32 32-14.312 32-32 32z" />
<glyph unicode="&#xe64a;" d="M512 239.999c0 49.167-40 89.146-89.167 89.146-2.396 0-4.771-0.104-7.146-0.291-23.125 28.854-57.979 45.978-95.688 45.978-37.688 0-72.562-17.124-95.688-45.979-2.375 0.188-4.771 0.291-7.188 0.291-49.123 0.001-89.123-39.978-89.123-89.145 0-5.146 0.688-10.104 1.5-15.042-0.542-0.708-1.188-1.354-1.708-2.083-5.229 0.75-10.479 1.125-15.792 1.125-61.75 0-112-50.249-112-111.999s50.25-112 112-112c13.688 0 27.084 2.5 39.709 7.333 28.957-25.25 65.791-39.333 104.291-39.333 38.542 0 75.333 14.083 104.291 39.333 12.625-4.833 26.021-7.333 39.709-7.333 61.75 0 112 50.249 112 112 0 25.688-9.042 49.083-23.666 67.999 14.582 15.896 23.666 36.833 23.666 60zM400 32c-17.125 0-32.916 5.499-45.938 14.666-23.479-28.291-58.438-46.666-98.062-46.666s-74.584 18.375-98.062 46.666c-13-9.167-28.812-14.666-45.938-14.666-44.188 0-80 35.812-80 80s35.812 79.999 80 79.999c10.812 0 21.062-2.188 30.438-6.062 0.562 1.062 1.25 2 1.812 3.021 5.625 10.271 12.562 19.688 20.666 28.042 23.084 23.916 55.167 39 91.084 39 49.709 0 92.334-28.666 113.541-70.062 5.646 2.312 11.668 3.813 17.875 4.812l12.584 1.25c12.334 0 23.875-3.042 34.312-8 11.312-5.416 21.021-13.374 28.646-23.188 10.5-13.521 17.042-30.354 17.042-48.812 0-44.188-35.812-80-80-80zM465.562 202.375c-18.479 13.458-41 21.624-65.562 21.624-5.312 0-10.562-0.375-15.792-1.125-29.874 40.708-77.021 65.125-128.208 65.125-34.125 0-66.312-11.042-92.938-30.334 7.479 22.854 28.729 39.479 54.062 39.479 7.75 0 15.062-1.562 21.75-4.332 15.188 29.562 45.625 50.020 81.125 50.020s65.958-20.457 81.084-50.020c6.729 2.77 14.083 4.332 21.749 4.332 31.584 0 57.167-25.583 57.167-57.146 0.001-14.478-5.561-27.54-14.437-37.623z" />
<glyph unicode="&#xe64b;" d="M512 345.167c0 49.146-40 89.124-89.167 89.124-2.396 0-4.771-0.083-7.146-0.27-23.125 28.833-57.978 45.979-95.687 45.979-37.688 0-72.562-17.146-95.688-45.979-2.375 0.187-4.771 0.27-7.188 0.27-49.124 0-89.124-39.979-89.124-89.124 0-5.146 0.688-10.125 1.5-15.042-0.542-0.708-1.188-1.354-1.708-2.083-5.229 0.75-10.479 1.125-15.792 1.125-61.75 0-112-50.25-112-112s50.25-112 112-112c13.688 0 27.084 2.499 39.709 7.333 18.354-16 40.104-26.938 63.207-33.208l-22.916-15.292 32-32-32-64 96 64-32 32 4.812 9.583c36.75 1.125 71.75 14.729 99.479 38.917 12.625-4.834 26.021-7.333 39.709-7.333 61.75 0 112 50.249 112 112 0 25.666-9.042 49.083-23.666 68 14.582 15.875 23.666 36.812 23.666 60zM400 137.167c-17.125 0-32.916 5.5-45.938 14.646-19-22.896-45.75-38.729-76.229-44.125l-23.771-2.312c-38.812 0.624-73.062 18.624-96.124 46.436-13-9.146-28.812-14.646-45.938-14.646-44.188 0-80 35.791-80 80 0 44.167 35.812 80 80 80 10.812 0 21.062-2.209 30.438-6.083 0.562 1.083 1.25 2 1.812 3.042 5.625 10.271 12.562 19.667 20.666 28.042 23.084 23.896 55.167 39 91.084 39 49.709 0 92.334-28.667 113.541-70.083 5.646 2.333 11.668 3.833 17.875 4.833l12.584 1.25c12.334 0 23.875-3.042 34.312-8 11.312-5.417 21.021-13.375 28.646-23.208 10.5-13.521 17.042-30.334 17.042-48.792 0-44.209-35.812-80-80-80zM465.562 307.542c-18.479 13.438-41 21.625-65.562 21.625-5.312 0-10.562-0.375-15.792-1.125-29.874 40.687-77.020 65.125-128.208 65.125-34.125 0-66.312-11.062-92.938-30.354 7.479 22.853 28.729 39.478 54.062 39.478 7.75 0 15.062-1.562 21.75-4.333 15.188 29.584 45.626 50.042 81.126 50.042s65.958-20.458 81.084-50.042c6.729 2.771 14.083 4.333 21.749 4.333 31.584 0 57.167-25.583 57.167-57.124 0-14.5-5.562-27.563-14.438-37.625z" />
<glyph unicode="&#xe64c;" d="M192 96l32-32-32-96 96 96-32 32 32 64-96-64zM512 345.167c0 49.146-40 89.124-89.167 89.124-2.396 0-4.771-0.083-7.146-0.27-23.125 28.833-57.978 45.979-95.687 45.979-37.688 0-72.562-17.146-95.688-45.979-2.375 0.187-4.771 0.27-7.188 0.27-49.124 0-89.124-39.979-89.124-89.124 0-5.146 0.688-10.125 1.5-15.042-0.542-0.708-1.188-1.354-1.708-2.083-5.229 0.75-10.479 1.125-15.792 1.125-61.75 0-112-50.25-112-112s50.25-112 112-112c13.688 0 27.084 2.499 39.709 7.333 1.104-0.959 2.416-1.625 3.541-2.562l28.312 18.875c-9.438 6.688-18.25 14.125-25.625 23-13-9.146-28.812-14.646-45.938-14.646-44.188 0-80 35.791-80 80 0 44.167 35.812 80 80 80 10.812 0 21.062-2.209 30.438-6.083 0.562 1.083 1.25 2 1.812 3.042 5.625 10.271 12.562 19.667 20.666 28.042 23.084 23.896 55.167 39 91.084 39 49.709 0 92.334-28.667 113.541-70.083 5.646 2.333 11.668 3.833 17.875 4.833l12.584 1.25c12.334 0 23.875-3.042 34.312-8 11.312-5.417 21.021-13.375 28.646-23.208 10.5-13.521 17.042-30.334 17.042-48.792 0-44.209-35.812-80-80-80-17.125 0-32.916 5.5-45.938 14.646-14-16.875-32.438-29.562-53.146-37.562l-5.979-11.938 18.25-18.25c17.062 6.646 33.021 16.188 47.104 28.438 12.625-4.834 26.021-7.333 39.709-7.333 61.75 0 112 50.249 112 112 0 25.666-9.042 49.083-23.666 68 14.583 15.873 23.667 36.81 23.667 59.998zM465.562 307.542c-18.479 13.438-41 21.625-65.562 21.625-5.312 0-10.562-0.375-15.792-1.125-29.874 40.687-77.020 65.125-128.208 65.125-34.125 0-66.312-11.062-92.938-30.354 7.479 22.853 28.729 39.478 54.062 39.478 7.75 0 15.062-1.562 21.75-4.333 15.188 29.584 45.626 50.042 81.126 50.042s65.958-20.458 81.084-50.042c6.729 2.771 14.083 4.333 21.749 4.333 31.584 0 57.167-25.583 57.167-57.124 0-14.5-5.562-27.563-14.438-37.625z" />
<glyph unicode="&#xe64d;" d="M256 336c-61.75 0-112-50.25-112-112s50.25-112 112-112 112 50.251 112 112c0 61.75-50.25 112-112 112zM256 368c8.833 0 16 7.146 16 16v32c0 8.833-7.167 16-16 16-8.854 0-16-7.167-16-16v-32c0-8.854 7.146-16 16-16zM256 80c-8.854 0-16-7.167-16-16v-32c0-8.854 7.146-16 16-16 8.833 0 16 7.146 16 16v32c0 8.833-7.167 16-16 16zM380.417 325.833l22.625 22.625c6.25 6.25 6.25 16.375 0 22.625s-16.375 6.25-22.625 0l-22.625-22.625c-6.251-6.25-6.251-16.375 0-22.625 6.25-6.249 16.374-6.249 22.625 0zM131.541 122.146l-22.623-22.625c-6.252-6.25-6.252-16.376 0-22.625 6.249-6.25 16.373-6.25 22.623 0l22.625 22.625c6.251 6.291 6.251 16.375 0 22.625-6.249 6.25-16.374 6.292-22.625 0zM112 224c0 8.833-7.167 16-16 16h-32c-8.854 0-16-7.167-16-16 0-8.854 7.146-16 16-16h32c8.833 0 16 7.146 16 16zM448 240h-32c-8.854 0-16-7.167-16-16 0-8.854 7.146-16 16-16h32c8.833 0 16 7.146 16 16 0 8.833-7.167 16-16 16zM131.521 325.833c6.249-6.25 16.375-6.25 22.625 0 6.249 6.25 6.249 16.375 0 22.625l-22.625 22.625c-6.25 6.25-16.376 6.25-22.625 0-6.25-6.25-6.25-16.375 0-22.625l22.625-22.625zM380.459 122.188c-6.293 6.25-16.376 6.25-22.625 0s-6.293-16.375 0-22.625l22.625-22.625c6.249-6.249 16.374-6.249 22.625 0 6.249 6.25 6.249 16.376 0 22.625l-22.625 22.625z" />
<glyph unicode="&#xe64e;" d="M248.082 216.068c-31.52 31.542-39.979 77.105-26.020 116.542-15.25-5.395-29.668-13.833-41.854-26.020-43.751-43.75-43.751-114.667 0-158.395 43.729-43.73 114.625-43.752 158.374 0 12.229 12.186 20.646 26.604 26.021 41.854-39.415-13.959-84.999-5.5-116.521 26.019z" />
<glyph unicode="&#xe64f;" d="M208 416c8.833 0 16 7.167 16 16v32c0 8.833-7.167 16-16 16s-16-7.167-16-16v-32c0-8.833 7.167-16 16-16zM332.438 373.833l22.625 22.625c6.249 6.25 6.249 16.375 0 22.625s-16.375 6.25-22.625 0l-22.625-22.625c-6.25-6.25-6.25-16.375 0-22.625s16.375-6.25 22.625 0zM16 256h32c8.833 0 16 7.167 16 16s-7.167 16-16 16h-32c-8.833 0-16-7.167-16-16s7.167-16 16-16zM352 272c0-8.833 7.167-16 16-16h32c8.833 0 16 7.167 16 16s-7.167 16-16 16h-32c-8.833 0-16-7.167-16-16zM83.541 373.833c6.251-6.25 16.376-6.25 22.625 0 6.251 6.25 6.251 16.375 0 22.625l-22.625 22.625c-6.25 6.25-16.374 6.25-22.625 0-6.25-6.25-6.25-16.375 0-22.625l22.625-22.625zM400 224c-5.312 0-10.562-0.375-15.792-1.125-16.771 22.875-39.124 40.333-64.458 51.5-1.291 60.625-50.812 109.625-111.75 109.625-61.75 0-112-50.25-112-112 0-17.438 4.334-33.75 11.5-48.438-59.625-2.437-107.5-51.374-107.5-111.562 0-61.75 50.25-112 112-112 13.688 0 27.084 2.5 39.709 7.333 28.957-25.25 65.791-39.333 104.291-39.333 38.542 0 75.333 14.083 104.291 39.333 12.625-4.833 26.021-7.333 39.709-7.333 61.75 0 112 50.25 112 112s-50.25 112-112 112zM256 288c-45.938 0-88.5-19.812-118.375-53.25-5.937 11.167-9.625 23.708-9.625 37.25 0 44.188 35.812 80 80 80 39.812 0 72.562-29.167 78.708-67.25-10.020 2-20.249 3.25-30.708 3.25z" />
<glyph unicode="&#xe650;" d="M435.062 217.834c4.875 3.625 9.812 7.187 14.229 11.604 13.208 13.229 23.271 29.333 29.792 47.854 2.083 5.792 0.604 12.292-3.772 16.625-4.354 4.375-10.812 5.854-16.623 3.792-35.396-12.5-73.688-4-99.896 22.25-26.249 26.25-34.791 64.521-22.249 99.896 2.042 5.812 0.583 12.271-3.792 16.646-4.333 4.333-10.812 5.833-16.625 3.791-18.542-6.583-34.625-16.625-47.834-29.833-33.541-33.5-43.979-81-32.479-123.792-43.25-5.521-82.125-28.5-108.021-63.792-5.229 0.75-10.479 1.125-15.792 1.125-61.75 0-112-50.249-112-112s50.25-112 112-112c13.688 0 27.084 2.501 39.709 7.334 28.956-25.25 65.79-39.334 104.29-39.334 38.542 0 75.333 14.084 104.291 39.334 12.625-4.833 26.021-7.334 39.709-7.334 61.75 0 112 50.25 112 112 0.001 49.438-32.416 91.021-76.937 105.834zM290.916 387.833c2.542 2.583 5.271 4.979 8.146 7.229-2.25-35.979 10.729-71.375 37.104-97.729 26.376-26.375 61.771-39.333 97.751-37.104-13.792-17.584-32.792-28.521-53.126-33.188-27.375 34.75-67.604 56.624-111.958 60.187-12.271 33.959-5.083 73.439 22.083 100.605z" />
<glyph unicode="&#xe651;" d="M400 320c-5.312 0-10.562-0.375-15.792-1.125-29.874 40.708-77.020 65.125-128.208 65.125s-98.312-24.417-128.208-65.125c-5.23 0.75-10.48 1.125-15.792 1.125-61.75 0-112-50.25-112-112s50.25-112 112-112c13.688 0 27.084 2.5 39.709 7.333 28.957-25.25 65.791-39.333 104.291-39.333 38.542 0 75.333 14.083 104.291 39.333 12.625-4.833 26.021-7.333 39.709-7.333 61.75 0 112 50.25 112 112s-50.25 112-112 112z" />
<glyph unicode="&#xe652;" d="M400 416c-5.312 0-10.562-0.375-15.792-1.125-29.874 40.708-77.020 65.125-128.208 65.125s-98.312-24.417-128.208-65.125c-5.23 0.75-10.48 1.125-15.792 1.125-61.75 0-112-50.25-112-112s50.25-112 112-112c13.688 0 27.084 2.5 39.709 7.333 21.541-18.771 47.416-31.291 75.104-36.521l-34.813-34.812 32-32-32-96 96 96-32 32 11 32.999c34.458 2.438 67.125 15.543 93.291 38.334 12.625-4.833 26.021-7.333 39.709-7.333 61.75 0 112 50.25 112 112s-50.25 112-112 112z" />
<glyph unicode="&#xe653;" d="M400 384c-5.312 0-10.562-0.375-15.792-1.125-29.874 40.708-77.020 65.125-128.208 65.125s-98.312-24.417-128.208-65.125c-5.23 0.75-10.48 1.125-15.792 1.125-61.75 0-112-50.25-112-112s50.25-112 112-112c13.688 0 27.084 2.5 39.709 7.333 28.957-25.25 65.791-39.333 104.291-39.333 38.542 0 75.333 14.083 104.291 39.333 12.625-4.833 26.021-7.333 39.709-7.333 61.75 0 112 50.25 112 112s-50.25 112-112 112zM224 32c0-17.688 14.312-32 32-32s32 14.312 32 32-32 64-32 64-32-46.312-32-64z" />
<glyph unicode="&#xe654;" d="M400 416c-5.312 0-10.562-0.375-15.792-1.125-29.874 40.708-77.020 65.125-128.208 65.125s-98.312-24.417-128.208-65.125c-5.23 0.75-10.48 1.125-15.792 1.125-61.75 0-112-50.25-112-112s50.25-112 112-112c13.688 0 27.084 2.5 39.709 7.333 28.957-25.25 65.791-39.333 104.291-39.333 38.542 0 75.333 14.083 104.291 39.333 12.625-4.833 26.021-7.333 39.709-7.333 61.75 0 112 50.25 112 112s-50.25 112-112 112zM225 0c0-17.688 14.312-32 32-32s32 14.312 32 32-32 64-32 64-32-46.312-32-64zM352 32c0-17.688 14.312-32 32-32s32 14.312 32 32-32 64-32 64-32-46.312-32-64zM96 96c0-17.688 14.312-32 32-32s32 14.312 32 32-32 64-32 64-32-46.312-32-64z" />
<glyph unicode="&#xe655;" d="M417.042 313.917c-23.979 24.542-57.125 38.771-91.73 38.771-34.562 0-67.688-14.229-91.687-38.771-52.812-2.459-95-46.188-95-99.584 0-54.958 44.709-99.666 99.688-99.666 5.812 0 11.604 0.5 17.25 1.499 20.75-13.541 44.938-20.854 69.749-20.854 24.854 0 49.063 7.313 69.772 20.854 5.707-0.999 11.458-1.499 17.291-1.499 54.937 0 99.625 44.708 99.625 99.666 0 53.396-42.188 97.125-94.958 99.584zM144 128h-128c-8.833 0-16-7.167-16-16s7.167-16 16-16h128c8.833 0 16 7.167 16 16s-7.167 16-16 16zM16 160h64c8.833 0 16 7.167 16 16s-7.167 16-16 16h-64c-8.833 0-16-7.167-16-16s7.167-16 16-16zM48 224h64c8.833 0 16 7.167 16 16s-7.167 16-16 16h-64c-8.833 0-16-7.167-16-16s7.167-16 16-16z" />
<glyph unicode="&#xe656;" d="M417.042 409.208c-23.98 24.563-57.125 38.792-91.73 38.792-34.562 0-67.688-14.229-91.665-38.792-52.813-2.438-95.021-46.167-95.021-99.542 0-54.978 44.709-99.708 99.688-99.708 5.834 0 11.604 0.501 17.271 1.5 20.729-13.521 44.917-20.833 69.729-20.833 24.854 0 49.063 7.312 69.772 20.833 5.707-0.999 11.458-1.5 17.291-1.5 54.937 0 99.625 44.73 99.625 99.708-0.002 53.376-42.19 97.126-94.96 99.542zM144 223.312h-128c-8.833 0-16-7.146-16-16s7.167-16 16-16h128c8.833 0 16 7.147 16 16s-7.167 16-16 16zM16 255.312h64c8.833 0 16 7.146 16 16s-7.167 16-16 16h-64c-8.833 0-16-7.146-16-16s7.167-16 16-16zM48 319.312h64c8.833 0 16 7.146 16 16s-7.167 16-16 16h-64c-8.833 0-16-7.146-16-16s7.167-16 16-16zM224 96c0-17.688 14.312-32 32-32s32 14.312 32 32-32 64-32 64-32-46.312-32-64zM352 32c0-17.688 14.312-32 32-32s32 14.312 32 32-32 64-32 64-32-46.312-32-64z" />
<glyph unicode="&#xe657;" d="M326.042 36.312l-18 10.376c0.542 3.124 0.957 6.311 0.957 9.624 0 3.312-0.415 6.5-0.999 9.625l18.042 10.396c8.417 4.917 11.291 15.729 6.458 24.104-4.876 8.479-15.667 11.375-24.125 6.5l-18.188-10.5c-4.876 4.146-10.375 7.396-16.5 9.604v20.896c0 9.771-7.938 17.688-17.688 17.688s-17.667-7.917-17.667-17.688v-20.875c-6.125-2.188-11.646-5.479-16.521-9.625l-18.146 10.5c-8.479 4.875-19.291 2-24.166-6.479-4.875-8.417-1.938-19.25 6.5-24.126l17.959-10.375c-0.584-3.146-0.959-6.334-0.959-9.646s0.375-6.5 0.959-9.624l-17.958-10.375c-8.459-4.875-11.375-15.75-6.5-24.188s15.688-11.312 24.125-6.438l18.167 10.438c4.874-4.125 10.396-7.375 16.541-9.562v-20.938c0-9.749 7.917-17.624 17.667-17.624s17.688 7.875 17.688 17.624v20.938c6.125 2.188 11.688 5.438 16.521 9.625l18.167-10.5c8.458-4.875 19.249-2 24.125 6.438 4.874 8.437 1.999 19.25-6.459 24.187zM256 38.625c-9.75 0-17.688 7.938-17.688 17.688s7.938 17.646 17.688 17.646 17.666-7.896 17.666-17.646-7.916-17.688-17.666-17.688zM400 416c-5.312 0-10.562-0.375-15.792-1.125-29.875 40.708-77.020 65.125-128.208 65.125s-98.312-24.417-128.208-65.125c-5.23 0.75-10.48 1.125-15.792 1.125-61.75 0-112-50.25-112-112s50.25-112 112-112c13.688 0 27.084 2.5 39.709 7.333 28.957-25.25 65.791-39.333 104.291-39.333 38.542 0 75.333 14.083 104.291 39.333 12.625-4.833 26.021-7.333 39.709-7.333 61.75 0 112 50.25 112 112s-50.25 112-112 112z" />
<glyph unicode="&#xe658;" d="M326.042 36.312l-18 10.376c0.542 3.124 0.958 6.311 0.958 9.624 0 3.312-0.416 6.5-1 9.625l18.042 10.396c8.417 4.917 11.291 15.729 6.458 24.104-4.876 8.479-15.667 11.375-24.125 6.5l-18.188-10.5c-4.876 4.146-10.375 7.396-16.5 9.604v20.896c0 9.771-7.938 17.688-17.688 17.688s-17.666-7.917-17.666-17.688v-20.875c-6.126-2.188-11.646-5.479-16.521-9.625l-18.146 10.5c-8.479 4.875-19.292 2-24.167-6.479-4.875-8.417-1.938-19.25 6.5-24.126l17.959-10.375c-0.584-3.146-0.959-6.334-0.959-9.646s0.375-6.5 0.959-9.624l-17.958-10.375c-8.459-4.875-11.375-15.75-6.5-24.188s15.688-11.312 24.125-6.438l18.167 10.438c4.874-4.125 10.396-7.375 16.542-9.562v-20.938c0-9.749 7.916-17.624 17.666-17.624s17.688 7.875 17.688 17.624v20.938c6.125 2.188 11.688 5.438 16.521 9.625l18.167-10.5c8.458-4.875 19.249-2 24.125 6.438 4.874 8.437 1.999 19.25-6.459 24.187zM256 38.625c-9.75 0-17.688 7.938-17.688 17.688s7.938 17.646 17.688 17.646 17.667-7.896 17.667-17.646-7.917-17.688-17.667-17.688zM474.166 83.75l-12.083 3.208c-0.291 3.833-1.208 7.479-2.896 10.979l8.771 8.771c4.125 4.125 4.104 10.792 0 14.854-4.083 4.104-10.708 4.125-14.833 0l-8.791-8.75c-3.459 1.625-7.146 2.562-10.959 2.875l-3.209 12.062c-1.499 5.583-7.25 8.938-12.874 7.438-5.604-1.521-8.875-7.271-7.417-12.875l3.209-11.896c-1.584-1.084-3.084-2.292-4.5-3.667-1.375-1.417-2.542-2.916-3.626-4.459l-11.896 3.209c-5.604 1.499-11.396-1.876-12.896-7.438-1.499-5.625 1.876-11.354 7.417-12.875l12-3.229c0.334-3.771 1.292-7.458 2.979-10.959l-8.812-8.812c-4.083-4.104-4.062-10.729 0.042-14.812 4.083-4.083 10.708-4.125 14.792-0.042l8.832 8.833c3.459-1.707 7.168-2.666 11.001-2.957l3.166-12.021c1.542-5.604 7.25-8.938 12.876-7.438 5.583 1.5 8.957 7.249 7.458 12.917l-3.209 11.896c1.5 1.062 3.042 2.25 4.459 3.625 1.375 1.396 2.542 2.938 3.624 4.479l11.917-3.209c5.604-1.5 11.375 1.854 12.854 7.417 1.5 5.585-1.812 11.334-7.396 12.876zM438.312 77.062c-4.125-4.125-10.771-4.104-14.875 0-4.062 4.062-4.104 10.729 0 14.854 4.104 4.083 10.771 4.083 14.875 0 4.063-4.104 4.063-10.791 0-14.854zM118.938 137.5l-11.875-3.188c-1.104 1.5-2.25 3.021-3.646 4.438-1.416 1.375-2.916 2.562-4.479 3.625l3.188 11.938c1.5 5.604-1.834 11.375-7.375 12.854-5.625 1.5-11.375-1.834-12.875-7.417l-3.25-12.062c-3.812-0.312-7.458-1.25-10.938-2.896l-8.812 8.771c-4.125 4.125-10.75 4.104-14.834 0-4.104-4.104-4.104-10.75 0-14.854l8.771-8.771c-1.646-3.5-2.604-7.188-2.896-10.979l-12.042-3.208c-5.625-1.542-8.959-7.25-7.458-12.875 1.521-5.583 7.271-8.875 12.896-7.417l11.875 3.23c1.062-1.604 2.25-3.105 3.688-4.501 1.375-1.375 2.875-2.604 4.438-3.625l-3.188-11.896c-1.5-5.625 1.834-11.417 7.416-12.917 5.626-1.5 11.334 1.833 12.834 7.438l3.25 12c3.812 0.312 7.5 1.271 11 2.938l8.791-8.792c4.084-4.124 10.709-4.041 14.834 0.042 4.062 4.062 4.125 10.708 0 14.812l-8.812 8.812c1.688 3.46 2.688 7.188 2.938 11.001l12.062 3.188c5.562 1.521 8.896 7.25 7.396 12.875-1.501 5.56-7.251 8.894-12.897 7.436zM88.562 109.042c-4.104-4.104-10.75-4.104-14.875 0-4.062 4.083-4.062 10.771 0 14.833 4.125 4.083 10.771 4.083 14.875 0s4.063-10.75 0-14.833zM512 304c0 61.75-50.25 112-112 112-5.312 0-10.562-0.375-15.792-1.125-29.874 40.708-77.020 65.125-128.208 65.125s-98.312-24.417-128.208-65.125c-5.23 0.75-10.48 1.125-15.792 1.125-61.75 0-112-50.25-112-112s50.25-112 112-112c13.688 0 27.084 2.5 39.709 7.333 28.957-25.25 65.791-39.333 104.291-39.333 38.542 0 75.333 14.083 104.291 39.333 12.625-4.833 26.021-7.333 39.709-7.333 61.75 0 112 50.25 112 112z" />
<glyph unicode="&#xe659;" d="M400 416c-5.312 0-10.562-0.375-15.792-1.125-29.874 40.708-77.020 65.125-128.208 65.125s-98.312-24.417-128.208-65.125c-5.23 0.75-10.48 1.125-15.792 1.125-61.75 0-112-50.25-112-112s50.25-112 112-112c13.688 0 27.084 2.5 39.709 7.333 28.957-25.25 65.791-39.333 104.291-39.333 38.542 0 75.333 14.083 104.291 39.333 12.625-4.833 26.021-7.333 39.709-7.333 61.75 0 112 50.25 112 112s-50.25 112-112 112zM96 160c-17.688 0-32-14.312-32-32s14.312-32 32-32 32 14.312 32 32-14.312 32-32 32zM256 128c-17.688 0-32-14.312-32-32s14.312-32 32-32 32 14.312 32 32-14.312 32-32 32zM416 160c-17.688 0-32-14.312-32-32s14.312-32 32-32 32 14.312 32 32-14.312 32-32 32zM352 32c-17.688 0-32-14.312-32-32s14.312-32 32-32 32 14.312 32 32-14.312 32-32 32zM160 32c-17.688 0-32-14.312-32-32s14.312-32 32-32 32 14.312 32 32-14.312 32-32 32z" />
<glyph unicode="&#xe65a;" d="M488.334 232.583c14.624-18.916 23.666-42.312 23.666-68 0-61.749-50.25-112-112-112-13.688 0-27.084 2.5-39.709 7.333-28.958-25.249-65.749-39.333-104.291-39.333-38.5 0-75.334 14.084-104.291 39.333-12.625-4.833-26.021-7.333-39.709-7.333-61.75 0-112 50.251-112 112s50.25 112 112 112c5.312 0 10.562-0.375 15.792-1.125 0.521 0.729 1.166 1.375 1.708 2.083-0.812 4.938-1.5 9.896-1.5 15.041 0 49.167 40 89.146 89.125 89.146 2.416 0 4.812-0.104 7.188-0.292 23.125 28.854 58 45.979 95.688 45.979 37.709 0 72.562-17.125 95.688-45.979 2.375 0.188 4.75 0.292 7.146 0.292 49.165 0.001 89.165-39.978 89.165-89.145 0-23.166-9.084-44.104-23.666-60z" />
<glyph unicode="&#xe65b;" d="M512 345.167c0 49.146-40 89.124-89.167 89.124-2.396 0-4.771-0.083-7.146-0.27-23.125 28.833-57.978 45.979-95.687 45.979-37.688 0-72.562-17.146-95.688-45.979-2.375 0.187-4.771 0.27-7.188 0.27-49.124 0-89.124-39.979-89.124-89.124 0-5.146 0.688-10.125 1.5-15.042-0.542-0.708-1.188-1.354-1.708-2.083-5.229 0.75-10.479 1.125-15.792 1.125-61.75 0-112-50.25-112-112s50.25-112 112-112c13.688 0 27.084 2.499 39.709 7.333 18.354-16 40.104-26.938 63.207-33.208l-22.916-15.292 32-32-32-64 96 64-32 32 4.812 9.583c36.75 1.125 71.75 14.729 99.479 38.917 12.625-4.834 26.021-7.333 39.709-7.333 61.75 0 112 50.249 112 112 0 25.666-9.042 49.083-23.666 68 14.582 15.875 23.666 36.812 23.666 60z" />
<glyph unicode="&#xe65c;" d="M288 119.125v293.958c0 19.292-14.334 34.917-32 34.917-17.667 0-32-15.625-32-34.917v-293.958c-19.042-11.083-32-31.501-32-55.125 0-35.333 28.666-64 64-64 35.333 0 64 28.667 64 64 0 23.624-12.938 44.042-32 55.125z" />
<glyph unicode="&#xe65d;" d="M256 480c-141.396 0-256-114.604-256-256 0-141.375 114.604-256 256-256 141.375 0 256 114.625 256 256 0 141.396-114.625 256-256 256zM256 32c-105.875 0-192 86.125-192 192s86.125 192 192 192 192-86.125 192-192-86.125-192-192-192zM160 128l128 64 64 128-128-64-64-128z" />
<glyph unicode="&#xe65e;" d="M159.094 201.354h-1.042l-33.521 51.188-40.938 60.437h-31.75v-176.395h35.062v111.104h1.521l29.104-44.542 44.688-66.562h31.938v176.395h-35.062v-111.625zM206.469 125.834h25.834l64.791 196.332h-26.125l-64.5-196.332zM398.719 312.979h-35.833l-61.979-176.395h37.375l11.521 36.375h61.459l10.749-36.375h38.146l-61.438 176.395zM359.281 202.375l7.146 23.292 13.604 45.832h1l13.854-46.604 6.896-22.521h-42.5z" />
<glyph unicode="&#xe65f;" d="M209.167 303.625c-3.604 3.396-7.792 6.083-12.542 8.062-4.812 1.938-9.938 2.938-15.375 2.938-5.458 0-10.584-1-15.375-2.938-4.75-1.979-8.938-4.667-12.541-8.062-3.584-3.417-6.396-7.417-8.459-12.042-2.042-4.605-3.062-9.479-3.062-14.583 0-5.125 1.021-10 3.062-14.605 2.062-4.604 4.875-8.625 8.459-12.020 3.604-3.417 7.791-6.125 12.541-8.063 4.791-1.979 9.917-2.958 15.375-2.958 5.438 0 10.562 0.979 15.375 2.958 4.75 1.938 8.938 4.646 12.542 8.063 3.583 3.395 6.396 7.417 8.416 12.020 2.042 4.605 3.104 9.479 3.104 14.605 0 5.104-1.062 9.979-3.104 14.583-2.021 4.626-4.833 8.626-8.416 12.042zM193.812 264.959c-3.438-3.417-7.625-5.125-12.562-5.125s-9.125 1.709-12.562 5.125c-3.396 3.417-5.125 7.417-5.125 12.042 0 4.75 1.729 8.833 5.125 12.145 3.438 3.333 7.625 4.979 12.562 4.979s9.125-1.646 12.562-4.979c3.375-3.312 5.104-7.395 5.104-12.145 0-4.626-1.728-8.626-5.104-12.042zM335.25 168.209c-6.062-1.73-12.083-2.583-18.062-2.583-3.938 0-7.812 0.604-11.646 1.79-3.854 1.209-7.354 3.084-10.499 5.646-3.167 2.563-5.73 5.834-7.667 9.854-1.959 4-2.958 8.917-2.958 14.709v51.458c0 5.792 0.999 10.75 2.958 14.854 1.937 4.083 4.459 7.417 7.541 9.979 3.084 2.562 6.542 4.396 10.5 5.5 3.917 1.105 7.834 1.667 11.771 1.667 5.979 0 12.124-0.875 18.437-2.688 6.313-1.791 12.188-4.999 17.668-9.604l16.896 27.146c-6.854 5.958-14.979 10.312-24.479 13.062-9.459 2.708-19.292 4.083-29.543 4.083-8.354 0-16.583-1.208-24.583-3.584-8.021-2.396-15.146-5.979-21.375-10.75-6.208-4.792-11.271-10.708-15.083-17.791-3.875-7.084-5.791-15.333-5.791-24.708v-66.042c0-9.562 1.979-17.875 5.916-24.959 3.917-7.084 9.041-12.979 15.334-17.666 6.332-4.708 13.479-8.229 21.499-10.625 8.042-2.375 16.229-3.584 24.604-3.584 10.396 0 20.271 1.542 29.688 4.604 9.375 3.083 17.312 7.354 23.812 12.792l-16.646 27.146c-6.126-4.79-12.25-8.019-18.292-9.706z" />
<glyph unicode="&#xe660;" d="M208.531 302.729c-3.604 3.396-7.791 6.084-12.541 8.062-4.812 1.938-9.938 2.938-15.375 2.938-5.459 0-10.584-1-15.375-2.938-4.75-1.979-8.938-4.667-12.542-8.062-3.583-3.416-6.396-7.416-8.459-12.041-2.042-4.605-3.062-9.479-3.062-14.584 0-5.125 1.020-10 3.062-14.604 2.063-4.604 4.876-8.625 8.459-12.021 3.604-3.416 7.792-6.125 12.542-8.062 4.791-1.979 9.916-2.958 15.375-2.958 5.438 0 10.562 0.979 15.375 2.958 4.75 1.938 8.938 4.646 12.541 8.062 3.584 3.396 6.396 7.417 8.416 12.021 2.042 4.604 3.105 9.479 3.105 14.604 0 5.104-1.063 9.979-3.105 14.584-2.020 4.625-4.832 8.625-8.416 12.041zM193.177 264.063c-3.438-3.417-7.625-5.126-12.562-5.126s-9.125 1.709-12.562 5.126c-3.396 3.416-5.125 7.416-5.125 12.041 0 4.75 1.729 8.833 5.125 12.146 3.438 3.333 7.625 4.979 12.562 4.979s9.125-1.646 12.562-4.979c3.374-3.312 5.104-7.396 5.104-12.146 0-4.625-1.73-8.625-5.104-12.041zM370.822 279.167v31.5h-121.582v-176.396h35.063v71.938h73.979v31.479h-73.979v41.479h86.519z" />
<glyph unicode="&#xe661;" d="M505.216 60.624l-191.984 384c-10.832 21.68-32.976 35.376-57.232 35.376s-46.4-13.696-57.232-35.376l-191.984-384c-9.92-19.84-8.864-43.408 2.8-62.288 11.664-18.848 32.256-30.336 54.432-30.336h383.952c22.192 0 42.784 11.488 54.432 30.336 11.664 18.88 12.72 42.448 2.816 62.288zM287.968 48c0-8.848-7.152-16-16-16h-32c-8.848 0-16 7.152-16 16v32c0 8.848 7.152 16 16 16h32c8.848 0 16-7.152 16-16v-32zM287.968 176c0-8.848-7.152-16-16-16h-32c-8.848 0-16 7.152-16 16v160c0 8.832 7.152 16 16 16h32c8.848 0 16-7.168 16-16v-160z" />
<glyph unicode="&#xe662;" d="M512 144c0-61.856-50.144-112-112-112h-288v0.4c-62.528 4.128-112 56.032-112 119.6 0 39.568 19.232 74.544 48.768 96.4-0.24 2.544-0.768 5.008-0.768 7.6 0 44.192 35.824 80 80 80 15.376 0 29.616-4.56 41.808-12.080 20.848 53.84 73.008 92.080 134.192 92.080 79.536 0 144-64.464 144-144 0-8.816-0.912-17.376-2.432-25.744 39.12-17.472 66.432-56.64 66.432-102.256z" />
<glyph unicode="&#xe663;" d="M464-32h-416c-8.832 0-16 7.152-16 16v256c0 8.848 7.168 16 16 16h48v64c0 88.368 71.632 160 160 160s160-71.632 160-160v-64h48c8.848 0 16-7.152 16-16v-256c0-8.848-7.152-16-16-16zM352 328c0 48.608-42.992 88-96 88s-96-39.392-96-88v-72h192v72z" />
<glyph unicode="&#xe664;" d="M416 464c0 8.832-7.152 16-16 16h-288c-8.832 0-16-7.168-16-16l-96-240v-224c0-17.664 14.336-32 32-32h448c17.664 0 32 14.336 32 32v224l-96 240zM368 224l-48-80c0-8.848-7.152-16-16-16h-96c-8.848 0-16 7.152-16 16l-48 80h-80l82.288 192h219.44l82.272-192h-80z" />
<glyph unicode="&#xe665;" d="M256 32.496c-10.384 0-25.584 11.68-35.664 12.752-28.752-24.112-58.704-53.136-99.424-68.224-17.776-7.536-33.040-11.904-37.008-7.152-5.328 6.192-13.376 14.784-14.8 17.088 0.080 3.424 4.224 0.72 8.736 5.584 24.576 10.336 40.448 37.008 51.12 69.616-76.976 38.576-128.96 110.944-128.96 194.048 0 123.536 114.624 223.696 256 223.696s256-100.144 256-223.696-114.624-223.712-256-223.712z" />
<glyph unicode="&#xe666;" d="M448 240h-0.784c-7.872-84.4-76.144-176-159.216-176v-64h96c8.848 0 16-7.152 16-16s-7.152-16-16-16h-256c-8.848 0-16 7.152-16 16s7.152 16 16 16h96v64c-83.072 0-151.328 91.6-159.216 176h-0.784v96c0 17.664 14.336 32 32 32s32-14.336 32-32v-80c0-70.688 57.312-128 128-128s128 57.312 128 128v80c0 17.664 14.336 32 32 32s32-14.336 32-32v-96zM256 192c-44.192 0-64 35.808-64 80v128c0 44.176 19.808 80 64 80s64-35.824 64-80v-128c0-44.192-19.808-80-64-80zM280 256c4.416 0 8 3.584 8 8 0 4.4-3.584 8-8 8s-8-3.6-8-8c0-4.416 3.584-8 8-8zM232 352c-4.416 0-8-3.6-8-8 0-4.416 3.584-8 8-8s8 3.584 8 8c0 4.4-3.584 8-8 8zM240 376c0 4.416-3.584 8-8 8s-8-3.584-8-8c0-4.416 3.584-8 8-8s8 3.584 8 8zM248 304c-4.416 0-8-3.6-8-8 0-4.416 3.584-8 8-8s8 3.584 8 8c0 4.4-3.584 8-8 8zM264 304c4.416 0 8 3.584 8 8 0 4.4-3.584 8-8 8s-8-3.6-8-8c0-4.416 3.584-8 8-8zM248 320c4.416 0 8 3.584 8 8 0 4.4-3.584 8-8 8s-8-3.6-8-8c0-4.416 3.584-8 8-8zM232 320c-4.416 0-8-3.6-8-8 0-4.416 3.584-8 8-8s8 3.584 8 8c0 4.4-3.584 8-8 8zM248 352c4.416 0 8 3.584 8 8s-3.584 8-8 8-8-3.584-8-8c0-4.416 3.584-8 8-8zM264 368c4.416 0 8 3.584 8 8s-3.584 8-8 8-8-3.584-8-8c0-4.416 3.584-8 8-8zM264 352c-4.416 0-8-3.6-8-8 0-4.416 3.584-8 8-8s8 3.584 8 8c0 4.4-3.584 8-8 8zM280 352c4.416 0 8 3.584 8 8s-3.584 8-8 8-8-3.584-8-8c0-4.416 3.584-8 8-8zM280 336c-4.416 0-8-3.6-8-8 0-4.416 3.584-8 8-8s8 3.584 8 8c0 4.4-3.584 8-8 8zM280 304c-4.416 0-8-3.6-8-8 0-4.416 3.584-8 8-8s8 3.584 8 8c0 4.4-3.584 8-8 8zM264 272c4.416 0 8 3.584 8 8 0 4.4-3.584 8-8 8s-8-3.6-8-8c0-4.416 3.584-8 8-8zM248 256c4.416 0 8 3.584 8 8 0 4.4-3.584 8-8 8s-8-3.6-8-8c0-4.416 3.584-8 8-8zM232 272c4.416 0 8 3.584 8 8 0 4.4-3.584 8-8 8s-8-3.6-8-8c0-4.416 3.584-8 8-8zM232 416c-4.416 0-8-3.584-8-8s3.584-8 8-8 8 3.584 8 8c0 4.416-3.584 8-8 8zM248 400c-4.416 0-8-3.584-8-8s3.584-8 8-8 8 3.584 8 8c0 4.416-3.584 8-8 8zM264 416c-4.416 0-8-3.584-8-8s3.584-8 8-8 8 3.584 8 8c0 4.416-3.584 8-8 8zM280 400c-4.416 0-8-3.584-8-8s3.584-8 8-8 8 3.584 8 8c0 4.416-3.584 8-8 8z" />
<glyph unicode="&#xe667;" d="M464 416h-416c-26.512 0-48-21.488-48-48v-288c0-26.496 21.488-48 48-48h416c26.512 0 48 21.504 48 48v288c0 26.512-21.488 48-48 48zM43.856 64.16l-11.696 11.712 131.984 131.968 11.696-11.712-131.984-131.968zM468.144 64.16l-131.984 131.968 11.696 11.712 131.984-131.968-11.696-11.712zM272 170.8v-10.8h-32v10.8l-207.952 192.8 20.352 20.352 203.6-188.768 203.6 188.768 20.352-20.352-207.952-192.8z" />
<glyph unicode="&#xe668;" d="M464-32h-16v160h64v-112c0-26.496-21.488-48-48-48zM448 320h16c26.512 0 48-21.504 48-48v-128h-64v176zM96 128h128v-32c0-8.848 7.168-16 16-16h32c8.848 0 16 7.152 16 16v32h128v-160h-320v160zM288 144v48c0 8.848-7.152 16-16 16h-32c-8.832 0-16-7.152-16-16v-48h-128v176h32v40c0 66.272 57.312 120 128 120s128-53.728 128-120v-40h32v-176h-128zM320 352c0 35.344-28.656 64-64 64s-64-28.656-64-64v-32h128v32zM0 16v112h64v-160h-16c-26.512 0-48 21.504-48 48zM0 272c0 26.496 21.488 48 48 48h16v-176h-64v128z" />
<glyph unicode="&#xe669;" d="M510.624 393.6l-46.624-185.6c0-2.224-0.448-4.32-1.248-6.224-1.632-3.84-4.688-6.912-8.512-8.528-1.92-0.816-4.032-1.248-6.24-1.248h-304l12.8-64h275.2c8.848 0 16-7.152 16-16s-7.152-16-16-16h-288c-8.848 0-16 7.152-16 16l-60.8 304h-51.2c-8.832 0-16 7.168-16 16s7.168 16 16 16h64c8.848 0 16-7.168 16-16l3.2-16h396.8c8.848 0 16-7.168 16-16 0-2.288-0.512-4.432-1.376-6.4zM137.6 224h54.4v160h-86.4l32-160zM288 384h-80v-160h80v160zM384 384h-80v-160h80v160zM400 384v-160h36.048l40.528 160h-76.576zM176 64c26.512 0 48-21.504 48-48s-21.488-48-48-48-48 21.504-48 48 21.488 48 48 48zM176 0c8.848 0 16 7.152 16 16s-7.152 16-16 16-16-7.152-16-16 7.152-16 16-16zM400 64c26.512 0 48-21.504 48-48s-21.488-48-48-48-48 21.504-48 48 21.488 48 48 48zM400 0c8.848 0 16 7.152 16 16s-7.152 16-16 16-16-7.152-16-16 7.152-16 16-16z" />
<glyph unicode="&#xe66a;" d="M74.992 42.992c-99.984 99.968-99.984 262.064 0 362.032 99.968 99.984 262.064 99.984 362.032 0 99.984-99.968 99.984-262.064 0-362.032-99.984-99.984-262.064-99.984-362.032 0zM391.76 359.76l-271.52-271.52c74.992-74.992 196.544-74.992 271.536 0s74.976 196.544-0.016 271.52z" />
<glyph unicode="&#xe66b;" d="M256 480c-141.392 0-256-114.624-256-256s114.608-256 256-256 256 114.624 256 256c0 141.376-114.608 256-256 256zM256 32c-106.032 0-192 85.968-192 192s85.968 192 192 192 192-85.968 192-192-85.968-192-192-192zM368 256h-80v112c0 8.832-7.152 16-16 16h-32c-8.848 0-16-7.168-16-16v-160c0-8.848 7.152-16 16-16h128c8.848 0 16 7.152 16 16v32c0 8.848-7.152 16-16 16z" />
<glyph unicode="&#xe66c;" d="M0-32v48c0 71.744 90.384 98.864 209.584 109.792-26.176 16.224-46.72 61.824-57.424 98.24-0.048 0-0.096-0.032-0.16-0.032-1.088 0-24 28.656-24 64 0 31.008-2.208 56.864 16.112 62.72-0.016 0.432-0.112 0.848-0.112 1.28 0 39.312 20.336 73.76 50.992 93.744 7.92 19.76 32.064 34.256 61.008 34.256s53.088-14.496 61.008-34.256c30.656-19.984 50.992-54.432 50.992-93.744 0-0.432-0.096-0.848-0.112-1.28 18.32-5.856 16.112-31.712 16.112-62.72 0-35.344-25.408-64-24-64-0.064 0-0.112 0.032-0.16 0.032-10.704-36.4-31.248-82.016-57.424-98.24 119.2-10.928 209.584-37.040 209.584-109.792v-48h-512z" />
<glyph unicode="&#xe66d;" d="M431.84 182.16c34.496-25.712 64.064-49.248 64.064-49.248l-42.096-73.824-76.080 33.584-70.496-41.232c-4.768-43.472-9.136-83.44-9.136-83.44h-84.192l-9.344 83.696-69.472 41.328-76.912-33.952-42.080 73.824c0 0 29.072 23.424 63.488 49.056v84.144l-63.488 48.96 42.080 73.84 75.072-33.408 74.528 40.432 6.128 84.080h84.192l6.096-83.728 73.504-41.248 76.128 33.888 42.096-73.84-64.064-49.136v-83.776zM256 288c-35.344 0-64-28.656-64-64s28.656-64 64-64 64 28.656 64 64-28.656 64-64 64z" />
<glyph unicode="&#xe66e;" d="M416 32c-53.008 0-96 35.808-96 80s42.992 80 96 80c11.28 0 21.936-1.92 32-4.912v148.912l-256-64v-240h-1.936c-8.896-36.512-47.632-64-94.064-64-53.008 0-96 35.808-96 80s42.992 80 96 80c11.28 0 21.936-1.92 32-4.912v276.912l320 80h64v-368c0-44.192-42.992-80-96-80z" />
<glyph unicode="&#xe66f;" d="M384 224h-192v-64c0-35.344 28.656-64 64-64h128c35.344 0 64-28.656 64-64s-28.656-64-64-64h-128c-106.032 0-192 85.968-192 192v256c0 35.344 28.656 64 64 64s64-28.656 64-64v-64h192c35.344 0 64-28.656 64-64s-28.656-64-64-64z" />
<glyph unicode="&#xe670;" d="M482.768 359.328l-5.024-5.024-91.616 91.664 5.008 5.008c0 0 21.936 29.008 53.136 29.008 13.744 0 29.312-5.648 45.584-21.92 53.664-53.664-7.088-98.736-7.088-98.736zM447.664 324.208l-311.984-312.096-135.68-44.112 44.096 135.76v0.048h0.032l311.936 312.080 4.032-4.048zM44.16 12.176l67.792 19.504-46.304 49.312-21.488-68.816z" />
<glyph unicode="&#xe671;" d="M512 128c0-17.664-14.336-32-32-32v-34.944c18.592-6.624 32-24.192 32-45.056 0-26.496-21.504-48-48-48-20.88 0-38.448 13.408-45.056 32h-34.944c0-17.664-14.336-32-32-32s-32 14.336-32 32h-32c0-17.664-14.336-32-32-32s-32 14.336-32 32h-32c0-17.664-14.336-32-32-32s-32 14.336-32 32h-34.944c-6.608-18.592-24.192-32-45.056-32-26.512 0-48 21.504-48 48 0 20.88 13.392 38.432 32 45.056v34.944c-17.664 0-32 14.336-32 32s14.336 32 32 32v32c-17.664 0-32 14.336-32 32s14.336 32 32 32v32c-17.664 0-32 14.336-32 32s14.336 32 32 32v34.944c-18.608 6.608-32 24.192-32 45.056 0 26.512 21.488 48 48 48 20.864 0 38.448-13.392 45.056-32h34.944c0 17.664 14.336 32 32 32s32-14.336 32-32h32c0 17.664 14.336 32 32 32s32-14.336 32-32h32c0 17.664 14.336 32 32 32s32-14.336 32-32h34.944c6.608 18.608 24.176 32 45.056 32 26.496 0 48-21.488 48-48 0-20.864-13.408-38.448-32-45.056v-34.944c17.664 0 32-14.336 32-32s-14.336-32-32-32v-32c17.664 0 32-14.336 32-32s-14.336-32-32-32v-32c17.664 0 32-14.336 32-32zM416 368c0 8.832-7.152 16-16 16h-288c-8.832 0-16-7.168-16-16v-288c0-8.848 7.168-16 16-16h288c8.848 0 16 7.152 16 16v288z" />
<glyph unicode="&#xe672;" d="M480 224c0-123.712-100.288-224-224-224s-224 100.288-224 224c0 54.528 19.616 104.368 52 143.2 2.464 4.544 5.888 8.496 10.16 11.36 0.72 0.752 1.36 1.6 2.096 2.336 0.016-0.368 0.176-0.72 0.208-1.088 4.624 2.592 9.872 4.192 15.536 4.192 17.664 0 32-14.336 32-32 0-11.136-5.68-20.928-14.32-26.656 0.56-0.416 0.96-0.928 1.536-1.344-22-27.392-35.216-62.128-35.216-100 0-88.368 71.632-160 160-160s160 71.632 160 160c0 37.872-13.216 72.608-35.216 100 0.576 0.416 0.992 0.928 1.536 1.344-8.64 5.728-14.32 15.52-14.32 26.656 0 17.664 14.336 32 32 32 5.664 0 10.912-1.6 15.536-4.192 0.032 0.368 0.192 0.72 0.224 1.088 0.72-0.736 1.36-1.584 2.096-2.336 4.272-2.864 7.68-6.816 10.16-11.36 32.352-38.832 51.984-88.672 51.984-143.2zM272 192h-32c-8.848 0-16 7.152-16 16v224c0 8.832 7.152 16 16 16h32c8.848 0 16-7.168 16-16v-224c0-8.848-7.152-16-16-16z" />
<glyph unicode="&#xe673;" d="M362.016 160.944l-0.16 0.096-1.056-0.848 1.504-0.224c0 0 64.832-163.264 51.248-186.928-26.704-20.24-141.472 89.52-156.384 104.016l0.096-0.56c0 0-128.944-128.768-158.8-105.744-17.888 12.992 47.152 192.48 47.152 192.48l0.304 0.048c-23.888 13.648-155.088 106.336-145.392 139.696 0.288 20.080 182.624 18.688 188.432 17.904 0.704 4.080 31.952 159.12 67.056 159.12 35.28 0 65.6-158.688 65.968-160.896h0.096l0.032-0.16 0.4 0.848c0 0 188.688 2.896 188.976-16.816 10.688-36.688-149.472-142.032-149.472-142.032z" />
<glyph unicode="&#xe674;" d="M224 160h-48v0.976c-5.28-0.544-10.576-0.976-16-0.976-88.352 0-160 71.632-160 160s71.648 160 160 160 160-71.632 160-160v-64h16v-16h16v-16h16v-16h16v-16h16v-16h16v-16h16v-16h16v-16h16v-16h16v-16h16v-16h16v-96c0-8.848-7.152-16-16-16h-64c-8.848 0-16 7.152-16 16v64h-80c-8.832 0-16 7.152-16 16v64h-80zM128 416c-35.344 0-64-28.656-64-64s28.656-64 64-64 64 28.656 64 64-28.656 64-64 64z" />
<glyph unicode="&#xe675;" d="M288 256v224c132.544 0 224-91.456 224-224h-224zM240-32c-132.544 0-240 107.456-240 240 0 144.544 105.456 240 256 240v-224h224c0-132.544-107.456-256-240-256z" />
<glyph unicode="&#xe676;" d="M406.16 207.936c0.752-77.456 72.944-103.184 73.776-103.568-0.656-1.744-11.568-36.72-38.096-72.832-22.944-31.184-46.688-62.24-84.16-62.864-36.848-0.656-48.688 20.336-90.816 20.336-42.112 0-55.264-19.712-90.112-20.992-36.144-1.28-63.696 33.664-86.832 64.768-47.264 63.584-83.36 179.664-34.848 258 24.048 38.912 67.072 63.552 113.792 64.208 35.52 0.592 69.072-22.304 90.752-22.304 21.744 0 62.496 27.504 105.312 23.472 17.936-0.688 68.288-6.72 100.592-50.704-2.544-1.552-60.080-32.656-59.36-97.52zM255.296 362c-4.176 29.424 11.392 60.016 29.184 79.232 19.856 21.648 53.36 37.744 81.024 38.768 3.536-29.984-9.44-60.080-28.624-81.744-19.216-21.632-50.72-38.48-81.584-36.256z" />
<glyph unicode="&#xe677;" d="M432-32h-352c-8.848 0-16 7.152-16 16v336h144c8.848 0 16 7.168 16 16v144h208c8.848 0 16-7.168 16-16v-480c0-8.848-7.152-16-16-16zM192 480v-128h-128l128 128z" />
<glyph unicode="&#xe678;" d="M496 288h-176v176c0 8.832-7.152 16-16 16h-96c-8.848 0-16-7.168-16-16v-176h-176c-8.848 0-16-7.168-16-16v-96c0-8.848 7.152-16 16-16h176v-176c0-8.848 7.152-16 16-16h96c8.848 0 16 7.152 16 16v176h176c8.848 0 16 7.152 16 16v96c0 8.832-7.152 16-16 16z" />
<glyph unicode="&#xe679;" d="M16 288h480c8.848 0 16-7.168 16-16v-96c0-8.848-7.152-16-16-16h-480c-8.832 0-16 7.152-16 16v96c0 8.832 7.168 16 16 16z" />
<glyph unicode="&#xe67a;" d="M320 288l-96-160-63.52 46.336-0.48 1.664-3.776 1.456 2.944-2.16-95.168-79.296v-32h384v32l-48 144-80 48zM144 272c26.496 0 48 21.488 48 48s-21.504 48-48 48-48-21.488-48-48 21.504-48 48-48zM496 448h-480c-8.832 0-16-7.168-16-16v-416c0-8.848 7.168-16 16-16h480c8.848 0 16 7.152 16 16v416c0 8.832-7.152 16-16 16zM480 48c0-8.848-7.152-16-16-16h-416c-8.832 0-16 7.152-16 16v352c0 8.832 7.168 16 16 16h416c8.848 0 16-7.168 16-16v-352z" />
<glyph unicode="&#xe67b;" d="M496 288h-480c-8.832 0-16-7.168-16-16l16-256c0-8.848 7.168-16 16-16h448c8.848 0 16 7.152 16 16l16 256c0 8.832-7.152 16-16 16zM496 384h-176l-32 48c0 8.832-7.152 16-16 16h-192c-8.832 0-16-7.168-16-16v-48h-48c-8.832 0-16-7.168-16-16v-32c0-8.832 7.168-16 16-16h480c8.848 0 16 7.168 16 16v32c0 8.832-7.152 16-16 16z" />
<glyph unicode="&#xe67c;" d="M496 384h-88l-24 48c0 8.832-7.152 16-16 16h-224c-8.848 0-16-7.168-16-16l-24-48h-88c-8.832 0-16-7.168-16-16v-352c0-8.848 7.168-16 16-16h480c8.848 0 16 7.152 16 16v352c0 8.832-7.152 16-16 16zM256 64c-70.688 0-128 57.312-128 128s57.312 128 128 128 128-57.312 128-128c0-70.688-57.312-128-128-128zM256 256c-35.344 0-64-28.656-64-64s28.656-64 64-64 64 28.656 64 64-28.656 64-64 64z" />
<glyph unicode="&#xe67d;" d="M507.44 16.752c6.096-6.096 6.096-15.984 0-22.096l-22.096-22.096c-6.112-6.096-16-6.096-22.096 0l-154.688 154.688c-1.68 1.68-2.8 3.664-3.552 5.776-31.728-23.184-70.688-37.024-113.008-37.024-106.032 0-192 85.968-192 192s85.968 192 192 192c106.032 0 192-85.968 192-192 0-42.32-13.84-81.28-37.024-113.008 2.112-0.752 4.096-1.856 5.776-3.552l154.688-154.688zM192 416c-70.688 0-128-57.312-128-128s57.312-128 128-128 128 57.312 128 128c0 70.688-57.312 128-128 128z" />
<glyph unicode="&#xe67e;" d="M506.816 275.536c-3.376 16.432-8.4 32.64-14.944 48.112-6.4 15.184-14.352 29.808-23.616 43.488-9.152 13.552-19.664 26.288-31.232 37.856-11.6 11.6-24.336 22.112-37.872 31.248-13.68 9.264-28.336 17.2-43.504 23.616-15.472 6.512-31.664 11.584-48.112 14.928-16.848 3.456-34.192 5.216-51.536 5.216s-34.688-1.76-51.568-5.216c-16.432-3.344-32.624-8.4-48.096-14.928-15.168-6.416-29.808-14.352-43.488-23.616-13.552-9.136-26.304-19.648-37.872-31.248-11.584-11.568-22.080-24.304-31.232-37.856-9.264-13.664-17.2-28.288-23.616-43.472-6.544-15.472-11.568-31.68-14.944-48.112-3.44-16.848-5.184-34.208-5.184-51.52 0-17.392 1.744-34.752 5.184-51.6 3.376-16.416 8.384-32.624 14.944-48.080 6.416-15.168 14.352-29.84 23.616-43.52 9.152-13.552 19.664-26.272 31.232-37.856 11.584-11.568 24.336-22.064 37.872-31.216 13.68-9.248 28.336-17.2 43.504-23.616 15.472-6.56 31.664-11.552 48.096-14.944 16.864-3.456 34.208-5.2 51.552-5.2s34.688 1.744 51.552 5.216c16.448 3.392 32.64 8.368 48.112 14.944 15.168 6.4 29.808 14.352 43.504 23.616 13.552 9.152 26.288 19.664 37.872 31.216 11.568 11.6 22.080 24.32 31.232 37.856 9.248 13.664 17.2 28.336 23.616 43.52 6.528 15.456 11.568 31.664 14.944 48.080 3.424 16.832 5.168 34.192 5.168 51.584 0 17.312-1.744 34.672-5.184 51.504zM474.56 226.192c-3.152 0.688-77.152 16.592-152.288 7.152-1.536 3.744-3.088 7.504-4.72 11.28-4.528 10.72-9.44 21.312-14.528 31.728 86.336 35.232 121.408 85.92 121.808 86.528 30.688-37.248 49.232-84.816 49.728-136.688zM400.4 388.064c-0.528-0.864-31.68-48.24-114.208-79.152-37.376 68.672-78.432 123.2-81.728 127.536 16.528 4.016 33.792 6.176 51.536 6.176 55.36 0 105.872-20.624 144.4-54.56zM203.648 436.272c-0.016-0.032-0.048-0.048-0.048-0.048s-0.256-0.064-0.656-0.144c0.208 0.064 0.464 0.112 0.704 0.192zM162.72 421.728c2.912-3.904 43.344-58.704 81.184-125.968-104.976-27.888-196.080-26.8-201.856-26.688 14.208 67.712 59.696 123.84 120.672 152.656zM37.376 224.032c0 2.32 0.096 4.592 0.192 6.896 3.84-0.080 111.872-2.528 224.432 31.152 6.288-12.256 12.272-24.72 17.744-37.168-2.912-0.816-5.744-1.664-8.624-2.608-117.984-38.128-177.824-144.288-177.824-144.288s0.080-0.064 0.096-0.096c-34.816 38.72-56.016 89.92-56.016 146.112zM256 5.392c-52.912 0-101.44 18.816-139.264 50.096 2.896-2.336 4.896-3.824 4.896-3.824s41.904 91.408 171.6 136.56c0.464 0.192 0.96 0.32 1.44 0.464 30.768-79.92 43.472-146.896 46.704-165.984-26.256-11.136-55.088-17.312-85.376-17.312zM378.176 42.672c-2.24 13.216-13.872 77.376-42.544 156.176 70.576 11.28 131.728-8.080 136.256-9.568-9.744-60.896-44.624-113.456-93.712-146.608z" />
<glyph unicode="&#xe67f;" d="M478.944-15.552l-211.824 488.496c-1.856 4.288-6.096 7.056-10.768 7.056s-8.912-2.768-10.752-7.040l-212.544-488.496c-1.584-3.664-1.216-7.84 0.96-11.152 2.176-3.296 5.856-5.312 9.808-5.312h180.176v106.688l-63.984 21.328c-8.848 0-16 7.152-16 16s7.152 16 16 16l63.984-21.328v101.312c0 8.848 7.152 16 16 16h32c8.848 0 16-7.152 16-16v-24l47.984 24c8.848 0 16-7.152 16-16s-7.152-16-16-16l-47.984-23.984v-56l79.984 48c8.848 0 16-7.152 16-16s-7.152-16-16-16l-79.984-48v-96.016h180.176c3.968 0 7.648 2 9.808 5.312 2.176 3.296 2.512 7.504 0.96 11.136z" />
<glyph unicode="&#xe680;" d="M421.344-32c-0.4 229.616-200.752 417.264-421.344 417.696v94.304c270.656 0 512-230.304 512-512h-90.656zM343.6-31.968h-90.608c0.304 56.384-28.336 119.488-73.664 166.736-45.072 47.632-124.96 77.648-179.104 77.36v94.272c169.040-3.648 339.936-163.312 343.376-338.368zM64.256 96.048c35.312 0 63.936-28.656 63.936-64 0-35.328-28.624-63.984-63.936-63.984s-63.936 28.656-63.936 63.984c0 35.344 28.624 64 63.936 64z" />
<glyph unicode="&#xe681;" d="M437.008 42.992c-99.968-99.984-262.064-99.984-362.032 0-99.984 99.968-99.984 262.064 0 362.032 99.968 99.984 262.064 99.984 362.032 0 99.984-99.984 99.984-262.064 0-362.032zM120.24 88.24c67.248-67.248 171.888-73.984 246.864-20.592l-267.456 267.456c-53.392-74.976-46.656-179.6 20.592-246.864zM391.76 359.76c-67.248 67.248-171.888 73.984-246.848 20.592l267.456-267.44c53.376 74.96 46.64 179.6-20.608 246.848z" />
<glyph unicode="&#xe682;" d="M256 480c-141.392 0-256-114.624-256-256s114.608-256 256-256 256 114.624 256 256c0 141.376-114.608 256-256 256zM288 34.88v61.12c0 8.848-7.152 16-16 16h-32c-8.848 0-16-7.152-16-16v-61.12c-80.336 13.504-143.712 76.8-157.232 157.12h61.232c8.848 0 16 7.152 16 16v32c0 8.848-7.152 16-16 16h-61.12c13.504 80.352 76.8 143.712 157.12 157.232v-61.232c0-8.832 7.152-16 16-16h32c8.848 0 16 7.168 16 16v61.232c80.32-13.52 143.616-76.88 157.12-157.232h-61.12c-8.848 0-16-7.152-16-16v-32c0-8.848 7.152-16 16-16h61.232c-13.52-80.32-76.896-143.616-157.232-157.12z" />
<glyph unicode="&#xe683;" d="M96 480v-512l320 255.632-320 256.368z" />
<glyph unicode="&#xe684;" d="M176 480h-96c-8.848 0-16-7.168-16-16v-480c0-8.848 7.152-16 16-16h96c8.848 0 16 7.152 16 16v480c0 8.832-7.152 16-16 16zM432 480h-96c-8.848 0-16-7.168-16-16v-480c0-8.848 7.152-16 16-16h96c8.848 0 16 7.152 16 16v480c0 8.832-7.152 16-16 16z" />
</font>
</defs>
</svg>
